Сегодня идет свободное скачивание без начисления Download

Мотель Бейтса / Bates Motel (Сезон 1, полный) (Такер Гейтс / Tucker Gates) [2013г., Ужасы, Детектив, Триллер, WEB-DLRip] MVO (LostFilm) [обновляемая]

Ответить на тему
 
Автор
Сообщение

Omen ®

Стаж: 5 лет 6 месяцев

Сообщений: 186946

Торрент-статистика

Пост 23-Май-2013 17:51

[Цитировать]

Мотель Бейтса
Bates Motel

«A boy's best friend is his mother.»
- Русское название: Мотель Бейтса
Оригинальное название: Bates Motel
Страна: США
Год выпуска: 2013
Жанр: Ужасы, Детектив, Триллер-Озвучка: Студия LostFilm
Перевод: Многоголосый закадровый, профессиональный-Режиссер: Такер Гейтс / Tucker Gates
В главных ролях: Вера Фармига, Фредди Хаймор, Никола Пельтц, Дженна Романин, Кэролайн Мэтьюз, Бриттни Уилсон, Джер Бернс, Макс Тириот, Ричард Хэрмон, Диана Банг ...-Описание фильма:
The Bates Motel - многосерийный телевизионный приквел классического хоррора Альфреда Хичкока, в котором будет рассказана история отрочества и юности Нормана Бейтса, будут раскрыты причины, приведшие его на скользкий путь серийного маньяка. По замыслу развитие сюжета и психологическая атмосфера будет представлять собой доброкачественный микс лучших постановочных решений Smallville («Тайн Смолвилля») и Twin Peaks («Твин Пикса»).-Сезон: 1
Серии: 10 из 10 серий
Продолжительность: ~ 00:44:00 мин серия-Качество видео: WEB-DLRip
Формат: AVI
Видеокодек: XviD
Аудиокодек: Mp3
Видео: MPEG-4 Visual at 1149 Кбит/сек, 720 x 400 (1.800) at 23.976 fps
Аудио: MPEG Audio at 192 Кбит/сек, 2 канала, 48,0 КГц
- -

Список серий:

  • Сначала сон, а следом - смерть (First You Dream, Then You Die)
  • Хороший городок ты выбрала, Норма... (Nice Town You Picked, Norma...)
  • Сначала сон, а следом - смерть (First You Dream, Then You Die)
  • Доверься мне (Trust Me)
  • Вид на океан (Ocean View)
  • Правда (The Truth)
  • Мужчина из девятого номера (The Man in Number 9)
  • Мальчик и его собака (A Boy and His Dog)
  • Безвыходное положение (Underwater)
  • Полночь (Midnight)
-

MediaInfo:

Код:
Общее
Полное имя                               : E:\_Сериалы\Мотель Бейтса (Bates Motel)\Bates.Motel.S01.rus.LostFilm\Bates.Motel.S01E01.rus.LostFilm.TV.avi
Формат                                   : AVI
Формат/Информация                        : Audio Video Interleave
Размер файла                             : 426 Мбайт
Продолжительность                        : 44 м.
Режим общего битрейта                    : Переменный
Общий поток                              : 1348 Кбит/сек
Программа кодирования                    : Nandub v1.0rc2
Библиотека кодирования                   : Nandub build 1853/release
Видео
Идентификатор                            : 0
Формат                                   : MPEG-4 Visual
Профиль формата                          : Simple@L3
Параметр BVOP формата                    : Нет
Параметр QPel формата                    : Нет
Параметр GMC формата                     : Без точки перехода
Параметр матрицы формата                 : Default (H.263)
Идентификатор кодека                     : XVID
Идентификатор кодека/Подсказка           : XviD
Продолжительность                        : 44 м.
Битрейт                                  : 1149 Кбит/сек
Ширина                                   : 720 пикселей
Высота                                   : 400 пикселей
Соотношение сторон                       : 16:9
Частота кадров                           : 23,976 кадра/сек
Цветовое пространство                    : YUV
Субдискретизация насыщенности            : 4:2:0
Битовая глубина                          : 8 бит
Тип развёртки                            : Прогрессивная
Метод сжатия                             : С потерями
Бит/(Пиксели*Кадры)                      : 0.166
Размер потока                            : 363 Мбайт (85%)
Библиотека кодирования                   : XviD 1.2.1 (UTC 2008-12-04)
Аудио
Идентификатор                            : 1
Формат                                   : MPEG Audio
Версия формата                           : Version 1
Профиль формата                          : Layer 3
Режим                                    : Joint stereo
Идентификатор кодека                     : 55
Идентификатор кодека/Подсказка           : MP3
Продолжительность                        : 44 м.
Вид битрейта                             : Переменный
Битрейт                                  : 192 Кбит/сек
Каналы                                   : 2 канала
Частота                                  : 48,0 КГц
Метод сжатия                             : С потерями
Размер потока                            : 58,8 Мбайт (14%)
Выравнивание                             : Соединение по промежуткам
Продолжительность промежутка             : 24  мс. (0,58 видеокадр)
Время предзагрузки промежутка            : 529  мс.
Библиотека кодирования                   : LAME3.97b
Настройки программы                      : -m j -V 4 -q 3 -lowpass 18.6 --abr 192
637249
-

Внимание! Раздача ведётся путём добавления новых серий!

Внимание! Раздача ведётся путём добавления новых серий; при каждом добавлении создётся новый торрент. Чтобы начать докачку новой серии, пользователям необходимо сделать следующее:
(1) остановить скачивание,
(2) удалить старый торрент у себя из клиента (старые серии удалять не надо),
(3) скачать новый торрент и запустить его у себя в клиенте вместо старого, при этом указать клиенту путь в старую папку куда и должно происходить скачивание новых серий.
Ваш клиент при этом должен произвести хеширование (проверку) старой папки (если не производит сам - помогите ему сделать это), и будет докачивать только те серии которых у вас ещё нет. Старые серии при этом не удаляются, а продолжают раздаваться!
Eсли вы уже удалили старые серии, то предотвратить повторную закачку старых серий можно, отжав галочку в соответствующих местах при запуске нового торрента.
-Скриншоты:
         
-

Еще

         
-Добавлена десятая, заключительная, серия первого сезона
Вне форума [Профиль] [ЛС]
Показать сообщения:    
Ответить на тему

Текущее время: Сегодня 14:37

Часовой пояс: GMT + 3



Вы не можете начинать темы
Вы не можете отвечать на сообщения
Вы не можете редактировать свои сообщения
Вы не можете удалять свои сообщения
Вы не можете голосовать в опросах
Вы не можете прикреплять файлы к сообщениям
Вы не можете скачивать файлы