Сегодня идет свободное скачивание без начисления Download

Смешарики. Пин-Код. Выпуск 5: Второе солнце (2013) DVD5

Ответить на тему
 
Автор
Сообщение

sashau ®

Пол:

Стаж: 5 лет 9 месяцев

Сообщений: 3575

Торрент-статистика

Пост 23-Май-2013 17:43

[Цитировать]

Смешарики. Пин-Код. Выпуск 5. Второе солнце - Русское название: Смешарики. Пин-Код. Выпуск 5. Второе солнце
Год выпуска: 2013
Жанр: Компьютерная анимация, Приключения
Вид субтитров: Отсутствуют
Режиссер: Денис Чернов, Катерина Савчук, Анна Борисова, Константин Бирюков, Алексей Горбунов
Персонажи: Бараш, Биби, Ежик, Кар-Карыч, Копатыч, Крош, Лосяш, Нюша, Пин, Совунья
Описание фильма:
Смешарики представляют образовательный сериал «Пин-Код». Вас ждут познавательные и очень увлекательные истории. Внимание! Внимание! Дорогие искатели приключений, пожалуйста, пристегните ремни – Смешарики опять отправляются в незабываемое путешествие по миру странного и неизведанного! В этом выпуске вам предстоит пройти серьезное испытание, чтобы спасти Землю от нависшей угрозы, найти одну «малышку на миллион», которая сможет вернуть Лосяшу гордость всей его жизни, и узнать, что может помочь от космической депрессии и не только. Но на этом приключения не закончатся: Копатыч на собственном примере докажет, как важно поддерживать хорошую физическую форму, а также вас ждет уникальная возможность увидеть второе солнце!

Продолжительность: 5 x 00:13:00
Качество видео: DVD5
Видеокодек: MPEG-2
Битрейт видео: ~7000 Кбит/с
Размер кадра: 720x576
Аудиокодек: AC3, 2 канала
Битрейт аудио: 224 Кбит/с

МедиаИнфо:

Видео
Идентификатор : 224 (0xE0)
Формат : MPEG Video
Версия формата : Version 2
Профиль формата : Main@Main
Параметр BVOP формата : Да
Параметр матрицы формата : По умолчанию
Параметр GOP формата : M=3, N=12
Продолжительность : 53 с.
Вид битрейта : Переменный
Битрейт : 157 Мбит/сек
Максимальный битрейт : 7000 Кбит/сек
Ширина : 720 пикселей
Высота : 576 пикселей
Соотношение сторон : 16:9
Частота кадров : 25,000 кадров/сек
Стандарт вещания : PAL
Цветовое пространство : YUV
Субдискретизация насыщенности : 4:2:0
Битовая глубина : 8 бит
Тип развёртки : Прогрессивная
Метод сжатия : С потерями
Бит/(Пиксели*Кадры) : 15.164
TimeCode_FirstFrame : 00:09:45:03
TimeCode_Source : Group of pictures header
Размер потока : 999 Мбайт (98%)
Аудио
Идентификатор : 189 (0xBD)-128 (0x80)
Формат : AC-3
Формат/Информация : Audio Coding 3
Расширение режима : CM (complete main)
Параметр Endianness формата : Big
Режим смешивания : DVD-Video
Продолжительность : 53 с.
Вид битрейта : Постоянный
Битрейт : 224 Кбит/сек
Каналы : 2 канала
Расположение каналов : Front: L R
Частота : 48,0 КГц
Битовая глубина : 16 бит
Метод сжатия : С потерями
Задержка видео : -432 мс.
Размер потока : 1,43 Мбайт (0%)

Дополнительная информация:

На диске присутствует раздел "Бонус", в котором есть две развивающих игры, - "Знаете ли Вы" и "Игра-викторина". Помимо этого, на диске есть раздел "Витрина", с помощью которого можно просмотреть существующие товары бренда "Смешарики". Ну и, само собой, на диске имеют место быть настройки, благодаря которым зритель может редактировать режим просмотра, - с заставками или без заставок, с рекламой или же без нее.

Скриншоты меню DVD:

       
 
Скриншоты:
       
Вне форума [Профиль] [ЛС]
Показать сообщения:    
Ответить на тему

Текущее время: Сегодня 06:21

Часовой пояс: GMT + 3



Вы не можете начинать темы
Вы не можете отвечать на сообщения
Вы не можете редактировать свои сообщения
Вы не можете удалять свои сообщения
Вы не можете голосовать в опросах
Вы не можете прикреплять файлы к сообщениям
Вы не можете скачивать файлы