Сегодня идет свободное скачивание без начисления Download

Вегас / Vegas (Сезон 1, серии 1-20 (21)) (2012) WEB-DLRip WEB-DLRip (720p) [NewStudio]

Ответить на тему
 
Автор
Сообщение

UndegraundMen ®

Стаж: 5 лет 6 месяцев

Сообщений: 25860

Торрент-статистика

Пост 22-Май-2013 23:18

[Цитировать]

Вегас / Vegas (Сезон 1, серии 1-20 (21)) (2012) WEB-DLRip WEB-DLRip [NewStudio]- Русское название: Вегас
Оригинальное название: Vegas
Год выпуска: 2012
Жанр: Драма, Вестерн
Перевод: Двуголосый закадровый, профессиональный
Язык: Rus.Eng
Озвучка / Автор перевода: Gutta, Demonnn/ PtyZa
Продолжительность: ~00:45:00
Качество видео: WEB-DLRip
Дата мировой премьеры: 25 сентября 2012
Режиссер: Мэтт Эрл Бисли
Актеры: Деннис Куэйд, Майкл Чиклис, Джеймс Руссо, Джейсон О’Мара, Кэрри-Энн Мосс, Айми Гарсиа
Описание фильма:
Vegas — драма по реальным событиям из жизни бывшего шерифа Лас Вегаса Ральфа Лэмба, которому в 60-е пришлось навести порядок в этой мекке развлечений и азартных игр, которая вдруг появилась в пустыне. Ральф Лэмб хочет спокойно заниматься своим ранчо, но коррупция в Лас Вегасе мешает его простой жизни. Вспомнив, что Лэмб состоял в военной полиции во времена второй мировой, мэр города аппелирует к чувству долга Ральфа, попросив его расследовать убийство работника казино. Так Лэмб сталкивается с Винсентом Савино, безжалостным чикагским гангстером, который намерен подмять под себя Лас Вегас. В поддержании правопорядка Ральфу помогают два заместителя: его дипломатичный брат Джек и его обаятельный но импульсивный сын Диксон. Амбициозная помощница прокурора Кэтрин О’Коннел, которая выросла по соседству с ранчо Лэмбов, тоже поддерживает борьбу за правосудие. Два могущественных мужчины — Лэмб и Савино — вступают в отчаянный бой за контроль над зарождающимся оазисом, и ни один из них не собирается отступать.

Сэмпл: Скачать
Видеокодек: H.264
Битрейт видео: ~4 003 Kbps
Размер кадра: 1280Х720
Аудиокодек: AC3
Битрейт аудио: 384 Kbps
Видео: AVC, 1280x720 (16/9), 23.976 fps, 4 003 Kbps (0.181 bit/pixel)
Аудио: AC-3, 48.0 KHz, 6 ch, 384 Kbps, CBR
Аудио: AC-3, 48.0 KHz, 6 ch, 384 Kbps, CBR

MediaInfo

General
Unique ID : 191773359923417782254607415684451187097 (0x904634A4E744F8378F4B725461AEB999)
Complete name : I:\ЗАКАЧКИ\Vegas.s01e01.WEBDL.720p.NewStudio.TV.mkv
Format : Matroska
File size : 1.54 GiB
Duration : 45mn 25s
Overall bit rate : 4 868 Kbps
Encoded date : UTC 2012-09-28 11:49:33
Writing application : mkvmerge v2.9.9 ('Tutu') built on Nov 25 2009 21:13:32
Writing library : libebml v0.7.9 + libmatroska v0.8.1
Video
ID : 1
Format : AVC
Format/Info : Advanced Video Codec
Format profile : [url=mailto:High@L3.1]High@L3.1[/url]
Format settings, CABAC : No
Format settings, ReFrames : 2 frames
Format settings, GOP : M=2, N=24
Codec ID : V_MPEG4/ISO/AVC
Duration : 45mn 25s
Bit rate : 4 003 Kbps
Width : 1 280 pixels
Height : 720 pixels
Display aspect ratio : 16:9
Frame rate : 23.976 fps
Color space : YUV
Chroma subsampling : 4:2:0
Bit depth : 8 bits
Scan type : Progressive
Bits/(Pixel*Frame) : 0.181
Stream size : 1.27 GiB (82%)
Language : English
Color primaries : BT.709-5, BT.1361, IEC 61966-2-4, SMPTE RP177
Transfer characteristics : BT.709-5, BT.1361
Matrix coefficients : BT.709-5, BT.1361, IEC 61966-2-4 709, SMPTE RP177
Audio #1
ID : 2
Format : AC-3
Format/Info : Audio Coding 3
Mode extension : CM (complete main)
Codec ID : A_AC3
Duration : 45mn 25s
Bit rate mode : Constant
Bit rate : 384 Kbps
Channel(s) : 6 channels
Channel positions : Front: L C R, Side: L R, LFE
Sampling rate : 48.0 KHz
Bit depth : 16 bits
Compression mode : Lossy
Stream size : 125 MiB (8%)
Audio #2
ID : 3
Format : AC-3
Format/Info : Audio Coding 3
Mode extension : CM (complete main)
Codec ID : A_AC3
Duration : 45mn 25s
Bit rate mode : Constant
Bit rate : 384 Kbps
Channel(s) : 6 channels
Channel positions : Front: L C R, Side: L R, LFE
Sampling rate : 48.0 KHz
Bit depth : 16 bits
Compression mode : Lossy
Stream size : 125 MiB (8%)
Language : English
Скриншоты:
       
Внимание! Раздача ведётся путём добавления новых серий!
Вне форума [Профиль] [ЛС]
Показать сообщения:    
Ответить на тему

Текущее время: Сегодня 04:36

Часовой пояс: GMT + 3



Вы не можете начинать темы
Вы не можете отвечать на сообщения
Вы не можете редактировать свои сообщения
Вы не можете удалять свои сообщения
Вы не можете голосовать в опросах
Вы не можете прикреплять файлы к сообщениям
Вы не можете скачивать файлы