Сегодня идет свободное скачивание без начисления Download

Пчёлка Майя / Maya the Bee (Сейджи Эндо, Хироши Саито,) (1975-1982,Детский, Приключения ,1 и 2 сезоны, 104 серии из 104)SATRip

Ответить на тему
 
Автор
Сообщение

sashau ®

Пол:

Стаж: 5 лет 9 месяцев

Сообщений: 3575

Торрент-статистика

Пост 21-Май-2013 12:42

[Цитировать]

Пчёлка Майя / Maya the Bee - Русское название: Пчёлка Майя
Оригинальное название: Maya the Bee
Год выпуска: 1975-1982
Жанр: Детский, Приключения
Перевод: Дублированный
Вид субтитров: Отсутствуют
Режиссер: Сейджи Эндо, Хироши Саито
Персонажи: Мая, Вилли,
Описание фильма:
В некотором царстве, в некотором улье родилась пчёлка Майя. И едва она родилась, тут же ей захотелось повидать белый свет. Кого только она не встретила, когда вылетела из улья! Тут и богатырь в блестящих доспехах — гордый жук, и комар, и стрекоза — немного страшная, но красивая, и даже эльф. Со всеми перезнакомилась неугомонная пчелка, всем успела сказать доброе слово. И не зря. Когда коварная паучиха поймала ее в свои сети, жук-богатырь — раз-два — и спас ее от неминуемой смерти. Лети, Майя! Но главное приключение было впереди. Когда Майю взяли в плен жестокие разбойники шершни, она не струсила, а сумела выручить из беды свой улей, на который те готовились напасть

Дата мировой премьеры: 1 апреля 1975
Продолжительность: 104 x ~ 00:22:00
Качество видео: SATRip
Видеокодек: Xvid
Битрейт видео: ~1486 Кбит/с
Размер кадра: 640x480
Аудиокодек: MP3, 2.0
Битрейт аудио: 192 Кбит/с

Список серий 1-й сезон:

01. Рождение Майи
02. Майя учиться летать
03. Майя и стрекоза Шнук
04. Майя — командир муравьев
05. Майя и муха Пак
06. Майя — заложница
07. Пожар в лесу
08. Вилли теряет память
09. Макс земляной червяк
10. Зеленая лягушка
11. Укрыться от дождя
12. Экспедиция под землю
13. Майя и старушка саранча
14. Прыжки в высоту
15. Майя и гусеничка
16. Незванные гости
17. Сороконожка
18. Флип в мухоловке
19. Майя и жук
20. Укрытие от дождя
21. Цикада
22. Шестой муравей
23. Сверчок и его музыка
24. Приключение в незнакомом лесу
25. Мастера маскировки
26. Кузен Флипа
27. Майя и цветочный эльф
28. Спасение червяка
29. Домик для гусеницы
30. Шмель-генерал
31. Птичка Гариетта
32. Майя-великан
33. Воробей и лягушка
34. Силач Виллард
35. Флэп — двойник Флипа
36. Блоха Китти
37. Майя и снег
38. Пришла весна
39. Мотылек Джек
40. Бой на муравьинной ферме
41. Ложные норы
42. Таракан Клайд
43. Новые друзья
44. Одинокий супергерой
45. Муха Мэри и ее малыши
46. Пчелка по имени Густав
47. Муравей по имени Энтони
48. Скрипичный концерт
49. Конкурс красоты
50. Прогулки по воде
51. Майя в опастности
52. С возвращением, Майя

Список серий 2-й сезон:

01.Спасение Филипа
02.Кто самый сильный
03.Лесной концерт
04.Дом, милый дом
05.Таинственный воришка
06.Братья акробаты
07.Марафон
08.Паника на лугу
09.Царица Майя
10.Мышь в бутылке
11.Гости из города
12. Вилли на страже
13.Гость из космоса
14.Доктор улитка
15.Летающая мышь
16.Сражение в воздухе
17.Брат Мелвин
18.Муравьиная армия наступает
19.Да здравствует футболл
20.Разгул стихииi
21.Дождливый день
22.Большое лётное состязание
23.Жук талисман
24.Увлекательное путешествие
25.Новый друг
26.Нежданные гости
27.Кто я
28.Случай на пикнике
29.Вилли в плену
30.Александрофон
31.Поиски друзей
32.Профессор Александр
33.В ловушке
34.Принцесса Биатрис
35.Мистер всезнайка
36.Крот Марвин
37.Братья Близнецы
38.Тарантул
39.Строительство плотины
40.Вредные комары
41.Хорошие манеры
42.Визит королевы
43.Майя во дворце
44.Соревнования на траве
45.Счастливого пути
46.Скульптура Вилли
47.Необычный телескоп
48.Привет с луга
49.Лесная зарядка
50.Волшебный лёд
51.Приключения в парнике
52.Цветочный фестиваль

MИ:

Рождение Майи.avi
Формат : AVI
Формат/Информация : Audio Video Interleave
Профиль формата : OpenDML
Настройки формата : rec
Размер файла : 268 Мбайт
Продолжительность : 22 м.
Общий поток : 1682 Кбит/сек
Программа кодирования : AVI-Mux GUI 1.17.7, Aug 8 2006 20:59:17
Видео
Идентификатор : 0
Формат : MPEG-4 Visual
Профиль формата : Advanced Simple@L5
Параметр BVOP формата : 2
Параметр QPel формата : Нет
Параметр GMC формата : Без точки перехода
Параметр матрицы формата : Default (H.263)
Идентификатор кодека : XVID
Идентификатор кодека/Подсказка : XviD
Продолжительность : 22 м.
Битрейт : 1486 Кбит/сек
Ширина : 640 пикселей
Высота : 480 пикселей
Соотношение сторон : 4:3
Частота кадров : 25,000 кадров/сек
Цветовое пространство : YUV
Субдискретизация насыщенности : 4:2:0
Битовая глубина : 8 бит
Тип развёртки : Прогрессивная
Метод сжатия : С потерями
Бит/(Пиксели*Кадры) : 0.193
Размер потока : 237 Мбайт (88%)
Библиотека кодирования : XviD 1.2.1 (UTC 2008-12-04)
Аудио
Идентификатор : 1
Формат : MPEG Audio
Версия формата : Version 1
Профиль формата : Layer 3
Режим : Joint stereo
Расширение режима : MS Stereo
Идентификатор кодека : 55
Идентификатор кодека/Подсказка : MP3
Продолжительность : 22 м.
Вид битрейта : Постоянный
Битрейт : 192 Кбит/сек
Каналы : 2 канала
Частота : 48,0 КГц
Метод сжатия : С потерями
Размер потока : 30,6 Мбайт (11%)
Выравнивание : Соединение по промежуткам
Продолжительность промежутка : 517 мс. (12,92 видеокадров)
Время предзагрузки промежутка : 216 мс.
Заголовок : A01 Tc0 L2 2ch 48 192 DELAY 0ms
Библиотека кодирования : LAME3.98r
Настройки программы : -m j -V 4 -q 2 -lowpass 18.6 -b 192
Скриншоты:
         
Вне форума [Профиль] [ЛС]

Dracula

Стаж: 3 года 11 месяцев

Сообщений: 10205

Торрент-статистика

Пост 21-Май-2013 13:03 (спустя 21 минута)

Топик был перенесен из форума Иностранные мультфильмы в форум Мультсериалы


RUGUI
 
Показать сообщения:    
Ответить на тему

Текущее время: Сегодня 14:43

Часовой пояс: GMT + 3



Вы не можете начинать темы
Вы не можете отвечать на сообщения
Вы не можете редактировать свои сообщения
Вы не можете удалять свои сообщения
Вы не можете голосовать в опросах
Вы не можете прикреплять файлы к сообщениям
Вы не можете скачивать файлы