Сегодня идет свободное скачивание без начисления Download

Аркадий Паровозов спешит на помощь (серии 1-26) (2012-2013) SATRip (Обновляемая)

Ответить на тему
 
Автор
Сообщение

UndegraundMen ®

Стаж: 4 года 7 месяцев

Сообщений: 26499

Торрент-статистика

Пост 20-Май-2013 05:13

[Цитировать]

Аркадий Паровозов спешит на помощь (серии 1-26) (2012-2013) SATRip- Русское название: Аркадий Паровозов спешит на помощь
Год выпуска: 2012-2013
Страна: Россия
Релиз группа: Пуз-Карапуз
Жанр: Мультсериал, кукольный, детский
Описание:
Новый русский познавательный мультсериал. В каждой двухминутной серии новые поучительные истории о приключениях неутомимых проказников, Маши и Саши. Любая их затея — приготовление пирога, постройка звездолета или лесная прогулка — обычно приводит к непредвиденным последствиям. Как хорошо, что удивительный супергерой Аркадий Паровозов всегда вовремя приходит ребятам на помощь!
Режиссер: Евгений Головин
Автор сценария: Вадим Воля
Роли озвучивали: Вадим Воля — чтение текста, Игорь Войнаровский — исполнение песни
Продолжительность: Каждая серия ~00:02:00
Перевод: Не требуется
Видеокодек: Xvid
Видео: 640x480 (4:3), 25,000 fps, ~1291 kbps
Качество видео: SATRip
Аудиокодек: MP3, 2 канала, Joint Stereo
Аудио: 48,0 КГц, 128 kbps

Персонажи

Герои. Саша и Маша — любопытные дети, которые любят шалить и устраивать беспорядки. Они как будто притягивают к себе все беды и неприятности. Брат и сестра живут на двенадцатом этаже, учатся средне.
Аркадий Паровозов — спасатель, герой и космонавт; добрый и смелый, веселый и находчивый. Он умеет летать, неплохо играет на баяне, не курит и живет на Луне.

Список серий

1. В магазине
2. Классики
3. Качели
4. Прятки
5. Грузовик
6. Уборка
7. Лес
8. Газ
9. Незнакомец
10. Спички
11. Солнце
12. Микробы
13. Молния
14. Грибы
15. Лес зимой
16. Санки
17. Не касайтесь железных предметов
18. Метро
19. Лекарство
20. Незнакомец 2
21. Обогреватель
22. Не залезать на подоконник
23. Ключ от квартиры
24. Теплые головные уборы
25. Остерегайтесь сосулек
26. Не отплывайте далеко от берега

Доп. информация

Что? Занимательные и очень поучительные истории о приключениях неутомимых проказников, Маши и Саши. Любая их затея — приготовление пирога, постройка звездолета или лесная прогулка — обычно приводит к непредвиденным последствиям. Как хорошо, что удивительный Аркадий Паровозов всегда вовремя приходит ребятам на помощь!
Зачем? Оригинальный мультсериал, обучающий основам безопасности жизнедеятельности в стихотворной форме. Основная задача проекта — научить детей быстро и правильно реагировать в случае опасных ситуаций и предотвращать их возникновение.
Мультсериал адресован детям 4-7 лет, однако будет полезен и интересен и более старшему возрасту.

MediaInfo

Общее
Полное имя : D:\Мультфильмы\Аркадий Паровозов\01_V_magazine.avi
Формат : AVI
Формат/Информация : Audio Video Interleave
Размер файла : 20,6 Мбайт
Продолжительность : 2 м. 0 с.
Общий поток : 1431 Кбит/сек
Программа кодирования : Lavf52.94.0
Видео
Идентификатор : 0
Формат : xvid
Идентификатор кодека : xvid
Продолжительность : 2 м. 0 с.
Битрейт : 1291 Кбит/сек
Ширина : 640 пикселей
Высота : 480 пикселей
Соотношение сторон : 4:3
Частота кадров : 25,000 кадров/сек
Бит/(Пиксели*Кадры) : 0.168
Размер потока : 18,6 Мбайт (90%)
Аудио
Идентификатор : 1
Формат : MPEG Audio
Версия формата : Version 1
Профиль формата : Layer 3
Режим : Joint stereo
Расширение режима : MS Stereo
Идентификатор кодека : 55
Идентификатор кодека/Подсказка : MP3
Продолжительность : 2 м. 0 с.
Вид битрейта : Постоянный
Битрейт : 128 Кбит/сек
Каналы : 2 канала
Частота : 48,0 КГц
Метод сжатия : С потерями
Размер потока : 1,84 Мбайт (9%)
Выравнивание : Соединение по промежуткам
Продолжительность промежутка : 24 мс. (0,60 видеокадр)
Общее
Полное имя : D:\Мультфильмы\Аркадий Паровозов\26_Ne_otpluvaute_daleko_ot_berega.avi
Формат : AVI
Формат/Информация : Audio Video Interleave
Размер файла : 26,0 Мбайт
Продолжительность : 2 м. 3 с.
Общий поток : 1768 Кбит/сек
Программа кодирования : Lavf52.94.0
Видео
Идентификатор : 0
Формат : MPEG-4 Visual
Профиль формата : Simple@L3
Параметр BVOP формата : Нет
Параметр QPel формата : Нет
Параметр GMC формата : Без точки перехода
Параметр матрицы формата : Default (H.263)
Идентификатор кодека : XVID
Идентификатор кодека/Подсказка : XviD
Продолжительность : 2 м. 3 с.
Битрейт : 1627 Кбит/сек
Ширина : 640 пикселей
Высота : 480 пикселей
Соотношение сторон : 4:3
Частота кадров : 25,000 кадров/сек
Цветовое пространство : YUV
Субдискретизация насыщенности : 4:2:0
Битовая глубина : 8 бит
Тип развёртки : Прогрессивная
Метод сжатия : С потерями
Бит/(Пиксели*Кадры) : 0.212
Размер потока : 23,9 Мбайт (92%)
Библиотека кодирования : XviD 1.2.1 (UTC 2008-12-04)
Аудио
Идентификатор : 1
Формат : MPEG Audio
Версия формата : Version 1
Профиль формата : Layer 3
Режим : Joint stereo
Расширение режима : MS Stereo
Идентификатор кодека : 55
Идентификатор кодека/Подсказка : MP3
Продолжительность : 2 м. 3 с.
Вид битрейта : Постоянный
Битрейт : 128 Кбит/сек
Каналы : 2 канала
Частота : 48,0 КГц
Метод сжатия : С потерями
Размер потока : 1,88 Мбайт (7%)
Выравнивание : Соединение по промежуткам
Продолжительность промежутка : 24 мс. (0,60 видеокадр)
Скриншоты:          
         

История обновлений

Раздача обновлена 12.02.2013! Добавлена 21 серия "Обогреватель"!!!
Раздача обновлена 25.02.2013! Добавлена 22 серия "Не залезать на подоконник"!!!
Раздача обновлена 27.02.2013! Добавлена 23 серия "Ключ от квартиры"!!!
Раздача обновлена 04.04.2013! Добавлена 24 серия "Теплые головные уборы"!!!
Раздача обновлена 10.04.2013! Добавлена 25 серия "Остерегайтесь сосулек"!!!
Раздача обновлена 19.05.2013! Добавлена 26 серия "Не отплывайте далеко от берега"!!!
Время раздачи: с 11:00 до 22:00
Вне форума [Профиль] [ЛС]

Dracula

Стаж: 3 года 11 месяцев

Сообщений: 10205

Торрент-статистика

Пост 20-Май-2013 07:10 (спустя 1 час 57 минут)

Топик был перенесен из форума Операционные системы в форум Мультсериалы


RUGUI
 
Похожие темы
Форум Тема Автор Торрент Отв. Посл. сообщение
./templates/default/images/folder_dl.gif Медицина и Здоровье Аркадьев, Москаленко, Березин и др. | Подборка лечебников [250 книг] (2000-2013) [FB2] sashau
1 | 0

0 | 772

15

2014-03-22 06:20
sashau Последнее
Показать сообщения:    
Ответить на тему

Текущее время: Сегодня 20:01

Часовой пояс: GMT + 3



Вы не можете начинать темы
Вы не можете отвечать на сообщения
Вы не можете редактировать свои сообщения
Вы не можете удалять свои сообщения
Вы не можете голосовать в опросах
Вы не можете прикреплять файлы к сообщениям
Вы не можете скачивать файлы