Сегодня идет свободное скачивание без начисления Download

Американская семейка / Modern Family (Сезон 4, полный) (Майкл Спиллер / Michael Spiller ...) [2012г., Комедия, WEB-DLRip] MVO (LostFilm) [обновляемая]

Ответить на тему
 
Автор
Сообщение

Omen ®

Стаж: 5 лет 11 месяцев

Сообщений: 184329

Торрент-статистика

Пост 19-Май-2013 16:20

[Цитировать]

Американская семейка
Modern Family

«One big (straight, gay, multi-cultural, traditional) happy family.»
- Русское название: Американская семейка
Оригинальное название: Modern Family
Страна: США, Bad Robot, Fringe Element Films, Warner Bros. Television
Год выпуска: 2012
Жанр: Комедия-Озвучка: Студия LostFilm
Перевод: Многоголосый закадровый, профессиональный-Режиссер: Майкл Спиллер / Michael Spiller, Фред Сэвидж / Fred Savage, Джейсон Уайнер / Jason Winer ...
В главных ролях: Эд О’Нил, Джули Боуэн, Ти Баррелл, София Вергара, Джесси Тайлер Фергюсон, Эрик Стоунстрит, Сара Хайланд, Нолан Гоулд, Эриель Винтер, Рико Родригез и др.-Описание фильма:
Джей Притчетт (Эд О’Нил) познакомился со сногсшибательной колумбийкой Глорией (София Вергара), когда она в бикини подавала ему коктейли на вечеринке, которую он устроил в день ухода егo первой жены. Теперь Джей и Глория женаты, и Джей изо всех сил старается не отставать от молодой красотки-жены и ее сына-подростка.
В семье Клэр Данфи (Джули Боуэн) тоже не все гладко. Ее муж Фил (Тай Беррел) – просто замечательный, но он считает, что “свой в доску” для своих детей, чем их сильно смущает.
Митчелл Притчет (Джесси Тайлер Фергюсон) и его партнер Камерон (Эрик Стоунстрит) только что удочерили Лили, очаровательного младенца из Вьетнама.
Modern Family – это псевдодокументальный взгляд на сложную жизнь и любовь этих трех семей.-Сезон: 4
Серии: 24 из 24 серий
Продолжительность: ~ 00:43:00 мин серия-Качество видео: WEB-DLRip
Формат: AVI
Видеокодек: XviD
Аудиокодек: Mp3
Видео: MPEG-4 Visual at 1915 Кбит/сек, 720 x 400 (1.800) at 23.976 fps
Аудио: MPEG Audio at 128 Кбит/сек, 2 канала, 48,0 КГц
- -

Список серий:

  • Разговоры о ребенке (Bringing Up Baby)
  • Обучение (Schooled)
  • Чик-чик (Snip)
  • Побег дворецкого (The Butler's Escape) PROPER
  • Открытый дом ужасов (Open House of Horrors)
  • Распродажа во дворе (Yard Sale)
  • Арестованная (Arrested)
  • Загадочное свидание (Mistery Date)
  • Когда дерево падает (When a Tree Falls)
  • Неограненный алмаз (Diamond in the Rough)
  • Канун Нового года (New Year's Eve)
  • Разрушитель вечеринки (Party Crasher)
  • Фульхенсио (Fulgencio)
  • Слабак оперы (A Slight at the Opera)
  • Разбитое сердце (Heart Broken)
  • Странная прическа (Bad Hair Day)
  • Шаферы (Best Men)
  • Вау-фактор (The Wow Factor)
  • Будущие Данфи (The Future Dunphys)
  • Прыг-скок (Flip Flop)
  • День карьеры (Career Day)
  • Мой герой (My Hero)
  • Игры, в которые играют люди (Games People Play)
  • Спи спокойно, Грэйси (Goodnight Gracie)
-

MediaInfo:

Код:
Общее
Полное имя                               : D:\Торро\Сериалы\Американская семейка (Modern Family)\Modern.Family.S04.rus.LostFilm\Modern.Family.S04E01.rus.LostFilm.TV.avi
Формат                                   : AVI
Формат/Информация                        : Audio Video Interleave
Размер файла                             : 320 Мбайт
Продолжительность                        : 21 м.
Общий поток                              : 2056 Кбит/сек
Программа кодирования                    : Nandub v1.0rc2
Библиотека кодирования                   : Nandub build 1853/release
Видео
Идентификатор                            : 0
Формат                                   : MPEG-4 Visual
Профиль формата                          : Simple@L3
Параметр BVOP формата                    : Нет
Параметр QPel формата                    : Нет
Параметр GMC формата                     : Без точки перехода
Параметр матрицы формата                 : Default (H.263)
Идентификатор кодека                     : XVID
Идентификатор кодека/Подсказка           : XviD
Продолжительность                        : 21 м.
Битрейт                                  : 1915 Кбит/сек
Ширина                                   : 720 пикселей
Высота                                   : 400 пикселей
Соотношение сторон                       : 16:9
Частота кадров                           : 23,976 кадра/сек
Цветовое пространство                    : YUV
Субдискретизация насыщенности            : 4:2:0
Битовая глубина                          : 8 бит
Тип развёртки                            : Прогрессивная
Метод сжатия                             : С потерями
Бит/(Пиксели*Кадры)                      : 0.277
Размер потока                            : 299 Мбайт (93%)
Библиотека кодирования                   : XviD 1.2.1 (UTC 2008-12-04)
Аудио
Идентификатор                            : 1
Формат                                   : MPEG Audio
Версия формата                           : Version 1
Профиль формата                          : Layer 3
Режим                                    : Joint stereo
Расширение режима                        : MS Stereo
Идентификатор кодека                     : 55
Идентификатор кодека/Подсказка           : MP3
Продолжительность                        : 21 м.
Вид битрейта                             : Постоянный
Битрейт                                  : 128 Кбит/сек
Каналы                                   : 2 канала
Частота                                  : 48,0 КГц
Метод сжатия                             : С потерями
Размер потока                            : 20,0 Мбайт (6%)
Выравнивание                             : Соединение по промежуткам
Продолжительность промежутка             : 24  мс. (0,58 видеокадр)
Время предзагрузки промежутка            : 480  мс.
555135
-

Внимание! Раздача ведётся путём добавления новых серий!

Внимание! Раздача ведётся путём добавления новых серий; при каждом добавлении создётся новый торрент. Чтобы начать докачку новой серии, пользователям необходимо сделать следующее:
(1) остановить скачивание,
(2) удалить старый торрент у себя из клиента (старые серии удалять не надо),
(3) скачать новый торрент и запустить его у себя в клиенте вместо старого, при этом указать клиенту путь в старую папку куда и должно происходить скачивание новых серий.
Ваш клиент при этом должен произвести хеширование (проверку) старой папки (если не производит сам - помогите ему сделать это), и будет докачивать только те серии которых у вас ещё нет. Старые серии при этом не удаляются, а продолжают раздаваться!
Eсли вы уже удалили старые серии, то предотвратить повторную закачку старых серий можно, отжав галочку в соответсвующих местах при запуске нового торрента.
-Скриншоты:
     
-

Еще

           
-Добавлена двадцать четвертая, заключительная, серия четвертого сезона
Вне форума [Профиль] [ЛС]
Показать сообщения:    
Ответить на тему

Текущее время: Сегодня 08:07

Часовой пояс: GMT + 3



Вы не можете начинать темы
Вы не можете отвечать на сообщения
Вы не можете редактировать свои сообщения
Вы не можете удалять свои сообщения
Вы не можете голосовать в опросах
Вы не можете прикреплять файлы к сообщениям
Вы не можете скачивать файлы