Сегодня идет свободное скачивание без начисления Download

Футурама / Futurama (6 сезон, серии 1-26 из 26) (2010-2011) [720p] WEB-DL [VO-production]

Ответить на тему
 
Автор
Сообщение

Omen ®

Стаж: 4 года 10 месяцев

Сообщений: 190643

Торрент-статистика

Пост 01-Авг-2011 20:05

[Цитировать]

Футурама
Futurama (6 сезон, серии 1-26 из 26) (2010-2011)
-

Год выпуска: 2010-2011
Жанр: Комедия, Для взрослых
Режиссер: Мэтт Гроунинг
Персонажи: Туранга Лила, Бендер Бендинг Родригес, Филипп Фрай, Хьюберт Фарнсворт, Гермес Конрад, Доктор Зойдберг, Эми Вонг
Язык: RU-Описание:
Сериал начинается с того, что разносчик пиццы из Нью-Йорка Филипп Джей Фрай случайно, как это кажется на первый взгляд (но подробнее об этом будет поведано лишь в восьмом эпизоде пятого сезона «Загадка Фрая»), был заморожен в криогенной камере ровно в 00 часов 00 минут 00 секунд 1 января 2000 года. Он был разморожен тысячу лет спустя, 31 декабря 2999 года, и обнаружил себя в городе будущего Нового Нью-Йорка. Знакомясь со своей будущей коллегой Турангой Лилой, Фрай пытается избежать принудительного назначения на работу курьером, кем он и был в прошлой жизни, и внедрения ему карьерного чипа — микросхемы, вшиваемой под кожу и определяющей род занятий своего носителя. Лила, в это время работающая инспектором по раздаче профессий, догоняя Фрая, чтобы вживить ему чип, в результате выслушивания речей Фрая о его прошлой никчёмной жизни курьером, отказывается от работы инспектора, которая ей не по душе, и вместе они находят очень дальнего потомка Фрая (его пра-пра-пра-…-пра-внучатого племянника) Хьюберта Фарнсворта — 150-летнего гениального учёного-склеротика, который берёт их на работу в свою небольшую компанию «Межпланетный экспресс» (англ. «Planet Express»), занимающуюся межгалактическими грузоперевозками, на должность курьера. «Межпланетный экспресс» — это маленький бизнес профессора, окупающий его гениальные, но иногда весьма сомнительные исследования и изобретения.-Продолжительность: ~21 минута каждая серия
Перевод: Многоголосый закадровый
Автор перевода: McGre
Релиз группа: VO-production-Видеокодек: MPEG-4 AVC/H.264
Битрейт видео: ~3500 kbps
Размер кадра: 1280x720
Качество видео: WEB-DL
Аудиокодек: AC-3 2.0
Аудио: 256 kbps CBR-

MediaInfo

Общее
Уникальный идентификатор : 251944195821104135933563488295567652304 (0xBD8AAFE61700DFDE8C0AD094323A75D0)
Полное имя : Futurama.S06e01.VO-production.mkv
Формат : Matroska
Размер файла : 585 Мбайт
Продолжительность : 21 м.
Общий поток : 3760 Кбит/сек
Дата кодирования : UTC 2010-06-26 11:37:00
Программа кодирования : mkvmerge v2.4.0 ('Fumbling Towards Ecstasy') built on Oct 11 2008 20:13:15
Библиотека кодирования : libebml v0.7.7 + libmatroska v0.8.1
Видео
Идентификатор : 1
Формат : AVC
Формат/Информация : Advanced Video Codec
Профиль формата : Main@L3.1
Параметр CABAC формата : Да
Параметр ReFrames формата : 1 кадр
Идентификатор кодека : V_MPEG4/ISO/AVC
Продолжительность : 21 м.
Битрейт : 3500 Кбит/сек
Ширина : 1280 пикс.
Высота : 720 пикс.
Соотношение сторон : 16:9
Частота кадров : 23,976 кадр/сек
Цветовое пространство : YUV
Подвыборка цветности : 4:2:0
Битовая глубина : 8 бит
Тип развёртки : Прогрессивная
Бит/(Пиксели*Кадры) : 0.158
Размер потока : 533 Мбайт (91%)
Библиотека кодирования : x264 core 65 r999kMod cc51047
Настройки программы : cabac=1 / ref=1 / deblock=1:0:0 / analyse=0x1:0x111 / me=hex / subme=6 / psy_rd=1.0:0.0 / mixed_ref=0 / me_range=16 / chroma_me=1 / trellis=0 / 8x8dct=0 / cqm=0 / deadzone=21,11 / chroma_qp_offset=-2 / threads=2 / thread_queue=2 / nr=0 / decimate=1 / mbaff=0 / bframes=0 / keyint=250 / keyint_min=25 / scenecut=40(pre) / rc=2pass / bitrate=3500 / ratetol=1.0 / qcomp=0.60 / qpmin=10 / qpmax=51 / qpstep=4 / cplxblur=20.0 / qblur=0.5 / ip_ratio=1.40 / aq=1:1.00
Аудио
Идентификатор : 2
Формат : AC-3
Формат/Информация : Audio Coding 3
Расширение режима : CM (complete main)
Идентификатор кодека : A_AC3
Продолжительность : 21 м.
Вид битрейта : Постоянный
Битрейт : 256 Кбит/сек
Канал(ы) : 2 канала(ов)
Расположение каналов : Front: L R
Частота : 48,0 КГц
Битовая глубина : 16 бит
Метод сжатия : С потерями
Размер потока : 39,8 Мбайт (7%)
-

Список серий

1. Перерождение
2. В Лилейском саду
3. Атака убойной проги
4. Поправка «Бесконечность»
5. Код нда Винчи
6. Смертельный осмотр
7. Опаздывающий Филип Дж. Фрай
8. Чёртовы Коты!
9. Происхождение по часовому механизму
10. Пленник Бендера
11. Совместимые Различия Лррра и Нднд
12. Мутанты протестуют
13. Захватывающие праздники Футурамы
14. Неутопия
15. Бендерама
16. Призрак в машинах
17. Закон и предсказания
18. Молчание Клешней
19. Привет, Лила, Лила
20. Все президентские головы
21. Мёбиус Дик
22. Наседка-Фрай
23. Совет Зойдберга
24. Простуженные воины
25. По часовой стрелке
26. Реинкарнация
-Скриншоты:
       


Последний раз редактировалось: Omen (2011-09-20 02:02), всего редактировалось 3 раз(а)
Вне форума [Профиль] [ЛС]
Показать сообщения:    
Ответить на тему

Текущее время: Сегодня 13:58

Часовой пояс: GMT + 3



Вы не можете начинать темы
Вы не можете отвечать на сообщения
Вы не можете редактировать свои сообщения
Вы не можете удалять свои сообщения
Вы не можете голосовать в опросах
Вы не можете прикреплять файлы к сообщениям
Вы не можете скачивать файлы