Сегодня идет свободное скачивание без начисления Download

Подразделение 1 (Первая группа) / Rejseholdet (2003)[x264 [DVDRip (Сезон-4 / Серии 1 из 2) BaibaKo (Обновляемая)

Ответить на тему
 
Автор
Сообщение

UndegraundMen ®

Стаж: 5 лет 9 месяцев

Сообщений: 25860

Торрент-статистика

Пост 19-Май-2013 00:02

[Цитировать]

Подразделение 1 (Первая группа) / Rejseholdet (2003) DVDRip (Сезон-4 / Серии 1 из 2) BaibaKo (Обновляемая)- Русское название: Подразделение 1 (Первая группа)
Оригинальное название: Rejseholdet
Страна: Дания, Швеция
Год выпуска: 2003
Жанр: Боевик, Триллер, Криминал
Перевод: Многоголосый закадровый, профессиональный - BaibaKo

Автор перевода: Вадим Литвиненко
Озвучка: Татьяна Оболевич, Юлия Котурбаш, Александр Фурман и Олекса Мельник.

Режиссер: Нильс Арден Оплев, Оле Кристиан Мадсен, Янник Йохансен
Актеры: Шарлотте Фич, Мадс Миккельсен, Ларс Бригманн, Вааге Сандо, Эрик Ведерсо, Трине Паллесен, Ларс Бом, и др.
Описание фильма:
Подразделение 1 - это спецподразделение датской полиции для расследования особо сложных убийств. После того, как шеф подразделения сам становится жертвой загадочного убийства, выбор нового руководителя падает на женщину. Согласны ли бывшие сотрудники "убойного" подчиняться Ингрид Даль? Достаточно ли в ней опыта, упрямства и самоиронии, чтобы создать из циничных опытных полицейских свою команду единомышленников? Эта задача оказывается непростой и для команды, и для самой Ингрид... Неожиданные повороты в сценарии, участие в сериале лучших звезд датского кино (Мадс Миккельсен, Ларс Бригманн, Шарлотте Фич, Ларс Бом) обеспечили ему звание самого любимого в Дании и международный приз "Emmy Award" за лучший сериал. В каждой серии появляются новые знакомые лица, известные нам из датских Догм и других полюбившихся фильмов этой особенной кино-страны. Многие ждали этого сериала много лет, и вот он впервые в русском переводе.
Продолжительность: 01:13:00
Качество видео: DVDRip
Видеокодек: AVC
Формат: MP4
Битрейт видео: ~1536 kb/s
Размер кадра: 720x400 (16:9)
Аудиокодек: AAC
Битрейт аудио: 192 kb/s
Аудио #1: Русский (AAC, 192 kb/s, 2 ch) — многоголосый
Аудио #2: Dansk (AAC, 128 kb/s, 2 ch) — оригинал Сэмпл

MediaInfo

Общее
Полное имя : D:\Downloads\Подразделение 1 (Сезон 4) Rejseholdet DVDRip x264\Rejseholdet.s04e01.DVDRip.x264.Rus.Dan.BaibaKo.tv.mp4
Формат : MPEG-4
Профиль формата : Base Media
Идентификатор кодека : isom
Размер файла : 977 Мбайт
Продолжительность : 1 ч. 13 м.
Режим общего битрейта : Переменный
Общий поток : 1858 Кбит/сек
Дата кодирования : UTC 2013-05-09 04:26:36
Дата пометки : UTC 2013-05-09 04:26:36
Видео
Идентификатор : 1
Формат : AVC
Формат/Информация : Advanced Video Codec
Профиль формата : [url=mailto:Baseline@L3.0]Baseline@L3.0[/url]
Параметр CABAC формата : Нет
Параметр ReFrames формата : 3 кадра
Идентификатор кодека : avc1
Идентификатор кодека/Информация : Advanced Video Coding
Продолжительность : 1 ч. 13 м.
Вид битрейта : Переменный
Битрейт : 1536 Кбит/сек
Максимальный битрейт : 10000 Кбит/сек
Ширина : 720 пикселей
Высота : 400 пикселей
Соотношение сторон : 16:9
Режим частоты кадров : Постоянный
Частота кадров : 25,000 кадров/сек
Цветовое пространство : YUV
Субдискретизация насыщенности : 4:2:0
Битовая глубина : 8 бит
Тип развёртки : Прогрессивная
Бит/(Пиксели*Кадры) : 0.213
Размер потока : 807 Мбайт (83%)
Заголовок : Rejseholdet s03e15(31)
Библиотека кодирования : x264 core 129 r2245 bc13772
Настройки программы : cabac=0 / ref=3 / deblock=1:0:0 / analyse=0x1:0x111 / me=hex / subme=7 / psy=1 / psy_rd=1.00:0.00 / mixed_ref=1 / me_range=16 / chroma_me=1 / trellis=1 / 8x8dct=0 / cqm=0 / deadzone=21,11 / fast_pskip=1 / chroma_qp_offset=-2 / threads=6 / lookahead_threads=1 / sliced_threads=0 / nr=0 / decimate=1 / interlaced=0 / bluray_compat=0 / constrained_intra=0 / bframes=0 / weightp=0 / keyint=250 / keyint_min=25 / scenecut=40 / intra_refresh=0 / rc_lookahead=40 / rc=2pass / mbtree=1 / bitrate=1536 / ratetol=1.0 / qcomp=0.60 / qpmin=0 / qpmax=69 / qpstep=4 / cplxblur=20.0 / qblur=0.5 / vbv_maxrate=10000 / vbv_bufsize=10000 / nal_hrd=vbr / ip_ratio=1.40 / aq=1:1.00
Дата кодирования : UTC 2013-05-09 01:29:22
Дата пометки : UTC 2013-05-09 04:34:15
Аудио #1
Идентификатор : 2
Формат : AAC
Формат/Информация : Advanced Audio Codec
Профиль формата : LC
Идентификатор кодека : 40
Продолжительность : 1 ч. 13 м.
Вид битрейта : Переменный
Битрейт : 192 Кбит/сек
Максимальный битрейт : 198 Кбит/сек
Каналы : 2 канала
Расположение каналов : Front: L R
Частота : 48,0 КГц
Метод сжатия : С потерями
Размер потока : 101 Мбайт (10%)
Язык : Russian
Дата кодирования : UTC 2013-05-09 03:39:04
Дата пометки : UTC 2013-05-09 04:34:15
Аудио #2
Идентификатор : 3
Формат : AAC
Формат/Информация : Advanced Audio Codec
Профиль формата : LC
Идентификатор кодека : 40
Продолжительность : 1 ч. 13 м.
Вид битрейта : Переменный
Битрейт : 128 Кбит/сек
Максимальный битрейт : 135 Кбит/сек
Каналы : 2 канала
Расположение каналов : Front: L R
Частота : 48,0 КГц
Метод сжатия : С потерями
Размер потока : 67,3 Мбайт (7%)
Заголовок : x$s
Язык : Danish
Дата кодирования : UTC 2013-05-09 01:29:49
Дата пометки : UTC 2013-05-09 04:34:15

Раздача ведётся путём добавления новых серий

Раздача ведётся путём добавления новых серий; при каждом добавлении создаётся новый торрент. Чтобы начать докачку новой серии, пользователям необходимо сделать следующее:
(1) остановить скачивание,
(2) удалить старый торрент у себя из клиента (старые серии удалять не надо),
(3) скачать новый торрент и запустить его у себя в клиенте вместо старого, при этом указать клиенту путь в старую папку куда и должно происходить скачивание новых серий.
Ваш клиент при этом должен произвести хеширование (проверку) старой папки (если не производит сам - помогите ему сделать это), и будет докачивать только те серии которых у вас ещё нет. Старые серии при этом не удаляются, а продолжают раздаваться!
Eсли вы уже удалили старые серии, то предотвратить повторную закачку старых серий можно, отжав галочку в соответствующих местах при запуске нового торрента. По возможности, желательно не удалять старые серии как можно дольше чтобы релизёр не столько продолжал раздавать старые серии, а смог сконцентрироваться на новых.
Скриншоты:
       
Время раздачи: 24/7 - круглосуточно (по возможности)
Вне форума [Профиль] [ЛС]
Показать сообщения:    
Ответить на тему

Текущее время: Сегодня 18:39

Часовой пояс: GMT + 3



Вы не можете начинать темы
Вы не можете отвечать на сообщения
Вы не можете редактировать свои сообщения
Вы не можете удалять свои сообщения
Вы не можете голосовать в опросах
Вы не можете прикреплять файлы к сообщениям
Вы не можете скачивать файлы