Сегодня идет свободное скачивание без начисления Download

В норме / Legit (2013) WEB-DLRip [13] [RU / EN]

Ответить на тему
 
Автор
Сообщение

UndegraundMen ®

Стаж: 5 лет 3 месяца

Сообщений: 25871

Торрент-статистика

Пост 19-Май-2013 00:02

[Цитировать]

В норме / Legit (2013) WEB-DLRip [13] [RU / EN]- Русское название: В норме
Оригинальное название: Legit
Год выпуска: 2013
Жанр: Комедия
Перевод: Двуголосый закадровый, профессиональный
Язык: RU / EN
Озвучка / Автор перевода: Алексей Серёгин и Ирина Воронова / Артём Ионов
Вид субтитров: Вшитые отключаемые
Язык субтитров: Русские, английские


Дата мировой премьеры: 17 января 2013
Режиссер: Питер О’Фаллон / Peter O'Fallon
Актеры: Эндрю Тэчер, Джим Джеффрис, DJ Куаллс, Кейт Лайбен, Елена Шубер, Тэмми Дуген, Джон Ратценбергер, Шерман Огастас, Дэн Баккедаль
Описание фильма:
Главный герой Джим Джеффрис — стендап-комик, пьяница и раздолбай со стажем. Но ведь когда-то надо браться за ум? Вот Джим тоже так подумал и решил начать жить нормально. Ну, хотя бы попробовать
Продолжительность: 13 x ~00:25
Качество видео: WEB-DLRip
Видеокодек: MPEG-4 AVC/H.264
Битрейт видео: ~4100 kbps avg
Размер кадра: 1280x720
Аудиокодек: AC3 5.1
Битрейт аудио: 384 Kbps

MediaInfo

Общее
Уникальный идентификатор : 237399854915057968725888505084839642181 (0xB2998C87297D8C61A009E6173732C445)
Полное имя : D:\Торренты на раздачу\В норме\Legit.S01.720p.WEB-DL\Legit.S01E01.720p.WEB-DL.mkv
Формат : Matroska
Версия формата : Version 2
Размер файла : 874 Мбайт
Продолжительность : 24 м.
Общий поток : 4993 Кбит/сек
Дата кодирования : UTC 2013-01-22 17:07:54
Программа кодирования : mkvmerge v5.8.0 ('No Sleep / Pillow') built on Sep 2 2012 15:37:04
Библиотека кодирования : libebml v1.2.3 + libmatroska v1.3.0
Видео
Идентификатор : 1
Формат : AVC
Формат/Информация : Advanced Video Codec
Профиль формата : [url=mailto:High@L3.1]High@L3.1[/url]
Параметр CABAC формата : Нет
Параметр ReFrames формата : 2 кадра
Идентификатор кодека : V_MPEG4/ISO/AVC
Продолжительность : 24 м.
Битрейт : 4126 Кбит/сек
Ширина : 1280 пикселей
Высота : 720 пикселей
Соотношение сторон : 16:9
Режим частоты кадров : Постоянный
Частота кадров : 23,976 кадра/сек
Цветовое пространство : YUV
Субдискретизация насыщенности : 4:2:0
Битовая глубина : 8 бит
Тип развёртки : Прогрессивная
Бит/(Пиксели*Кадры) : 0.187
Размер потока : 723 Мбайт (83%)
Язык : English
Default : Да
Forced : Нет
Основные цвета : BT.709
Характеристики трансфера : BT.709
Коэффициенты матрицы : BT.709
Аудио #1
Идентификатор : 2
Формат : AC-3
Формат/Информация : Audio Coding 3
Расширение режима : CM (complete main)
Параметр Endianness формата : Big
Идентификатор кодека : A_AC3
Продолжительность : 24 м.
Вид битрейта : Постоянный
Битрейт : 384 Кбит/сек
Каналы : 6 каналов
Расположение каналов : Front: L C R, Side: L R, LFE
Частота : 48,0 КГц
Битовая глубина : 16 бит
Метод сжатия : С потерями
Размер потока : 67,2 Мбайт (8%)
Заголовок : DVO Ozz.tv
Язык : Russian
Default : Да
Forced : Нет
Аудио #2
Идентификатор : 3
Формат : AC-3
Формат/Информация : Audio Coding 3
Расширение режима : CM (complete main)
Параметр Endianness формата : Big
Идентификатор кодека : A_AC3
Продолжительность : 24 м.
Вид битрейта : Постоянный
Битрейт : 384 Кбит/сек
Каналы : 6 каналов
Расположение каналов : Front: L C R, Side: L R, LFE
Частота : 48,0 КГц
Битовая глубина : 16 бит
Метод сжатия : С потерями
Размер потока : 67,2 Мбайт (8%)
Язык : English
Default : Нет
Forced : Нет
Текст #1
Идентификатор : 4
Формат : UTF-8
Идентификатор кодека : S_TEXT/UTF8
Идентификатор кодека/Информация : UTF-8 Plain Text
Заголовок : Артём Ионов
Язык : Russian
Default : Нет
Forced : Нет
Текст #2
Идентификатор : 5
Формат : UTF-8
Идентификатор кодека : S_TEXT/UTF8
Идентификатор кодека/Информация : UTF-8 Plain Text
Заголовок : CC
Язык : English
Default : Нет
Forced : Нет
ВСЕ РЕЛИЗЫСкриншоты:
         
Время раздачи: ~ С 14:00 до 03:00 (10-15 скачавших)
Вне форума [Профиль] [ЛС]
Показать сообщения:    
Ответить на тему

Текущее время: Сегодня 06:11

Часовой пояс: GMT + 3



Вы не можете начинать темы
Вы не можете отвечать на сообщения
Вы не можете редактировать свои сообщения
Вы не можете удалять свои сообщения
Вы не можете голосовать в опросах
Вы не можете прикреплять файлы к сообщениям
Вы не можете скачивать файлы