Сегодня идет свободное скачивание без начисления Download

Крах / Падение / The Fall (2013) HDTVRip [H.264/720p] [Сезон: 1 / Серии: 1 (5)] [Обновляемая]

Ответить на тему
 
Автор
Сообщение

UndegraundMen ®

Стаж: 5 лет 6 месяцев

Сообщений: 25860

Торрент-статистика

Пост 17-Май-2013 00:03

[Цитировать]

Крах / Падение / The Fall (2013) HDTVRip [H.264/720p] [Сезон: 1 / Серии: 1 (5)] [Обновляемая]- Русское название: Крах / Падение
Оригинальное название: The Fall
Год выпуска: 2013
Страна: США
Жанр: Триллер, Драма
Продолжительность: ~00:55:00
Перевод: Профессиональный (многоголосый закадровый) Студия Jaskier
Русские субтитры: нет
Режиссёр: Джейкоб Вербрюгген
В ролях: Джиллиан Андерсон / Gillian Anderson , Джеми Дорнан / Jamie Dornan , Лаура Доннелли / Laura Donnelly , Брона Во / Bronagh Waugh , Бен Пил / Ben Peel , Майкл МакЭлхаттон / Michael McElhatton , Ниам МакГрэйди / Niamh McGrady , Фрэнк Маккаскер / Frank McCusker , Джон Линч / John Lynch и другие
Описание:
Сериал «Крах» (The Fall) – психологический триллер, действие которого разворачивается в городе Белфаст в Северной Ирландии.
Местное население здесь терроризирует серийный убийца, и городская полиция никак не может вычислить этого маньяка. Детектив Стелла Гибсон (Джиллиан Андерсон) берется разобраться в этом загадочном мрачном деле. Героиня сериала не успокоится, пока не найдет преступника.

Перевод: Doctor Joker и MartinaG
Роли озвучивали: Сергей Пономарёв, Денис Строев, Михаил Кшиштовский, Вячеслав Козлов и Рина Гришина


Сэмпл: Скачать
Качество: HDTVRip 720p
Формат: MKV
Видео кодек: H.264
Аудио кодек: AC3
Видео: H.264, 1280x720, 25 fps, ~2 000 kbps, 0.079 Bit/Pixel
Аудио: Dolby AC3, 48000Hz, stereo 192 kbps Русский
Аудио 2: Dolby AC3, 48000Hz, stereo 192 kbps Оригинал (Английский)

Раздача ведётся путём добавления новых серий

Раздача ведётся путём добавления новых серий; при каждом добавлении создаётся новый торрент. Чтобы начать докачку новой серии, пользователям необходимо сделать следующее:
(1) остановить скачивание,
(2) удалить старый торрент у себя из клиента (старые серии удалять не надо),
(3) скачать новый торрент и запустить его у себя в клиенте вместо старого, при этом указать клиенту путь в старую папку куда и должно происходить скачивание новых серий.
Ваш клиент при этом должен произвести хеширование (проверку) старой папки (если не производит сам - помогите ему сделать это), и будет докачивать только те серии которых у вас ещё нет. Старые серии при этом не удаляются, а продолжают раздаваться!
Eсли вы уже удалили старые серии, то предотвратить повторную закачку старых серий можно, отжав галочку в соответствующих местах при запуске нового торрента. По возможности, желательно не удалять старые серии как можно дольше чтобы релизёр не столько продолжал раздавать старые серии, а смог сконцентрироваться на новых.

MediaInfo

Полное имя : F:\Сериал\раздача\The.Fall.1.season\the_fall.1x01.dark_descent.720p.mkv
Формат : Matroska
Версия формата : Version 1
Размер файла : 946 Мбайт
Продолжительность : 58 м.
Общий поток : 2242 Кбит/сек
Дата кодирования : UTC 2013-05-15 17:13:50
Программа кодирования : mkvmerge v2.3.0 ('Freak U') built on Sep 8 2008 18:32:16
Библиотека кодирования : Larry Sanders
Видео
Идентификатор : 1
Формат : AVC
Формат/Информация : Advanced Video Codec
Профиль формата : [url=mailto:High@L4.1]High@L4.1[/url]
Параметр CABAC формата : Да
Параметр ReFrames формата : 5 кадров
Идентификатор кодека : V_MPEG4/ISO/AVC
Продолжительность : 58 м.
Битрейт : 1813 Кбит/сек
Ширина : 1280 пикс.
Высота : 720 пикс.
Соотношение сторон : 16:9
Частота кадров : 25,000 кадр/сек
Цветовое пространство : YUV
Подвыборка цветности : 4:2:0
Битовая глубина : 8 бит
Тип развёртки : Прогрессивная
Бит/(Пиксели*Кадры) : 0.079
Размер потока : 765 Мбайт (81%)
Библиотека кодирования : x264 core 132 r2309 3b1f1f7
Настройки программы : cabac=1 / ref=5 / deblock=1:0:0 / analyse=0x3:0x113 / me=umh / subme=8 / psy=1 / psy_rd=1.00:0.00 / mixed_ref=1 / me_range=16 / chroma_me=1 / trellis=1 / 8x8dct=1 / cqm=0 / deadzone=21,11 / fast_pskip=1 / chroma_qp_offset=-2 / threads=12 / lookahead_threads=2 / sliced_threads=0 / nr=0 / decimate=1 / interlaced=0 / bluray_compat=0 / constrained_intra=0 / bframes=3 / b_pyramid=2 / b_adapt=2 / b_bias=0 / direct=3 / weightb=1 / open_gop=0 / weightp=2 / keyint=250 / keyint_min=25 / scenecut=40 / intra_refresh=0 / rc_lookahead=50 / rc=crf / mbtree=1 / crf=19.0 / qcomp=0.60 / qpmin=0 / qpmax=69 / qpstep=4 / ip_ratio=1.40 / aq=1:1.00
Язык : English
Аудио #1
Идентификатор : 2
Формат : AC-3
Формат/Информация : Audio Coding 3
Расширение режима : CM (complete main)
Идентификатор кодека : A_AC3
Продолжительность : 58 м.
Вид битрейта : Постоянный
Битрейт : 192 Кбит/сек
Каналы : 2 канала
Расположение каналов : Front: L R
Частота : 48,0 КГц
Битовая глубина : 16 бит
Метод сжатия : С потерями
Размер потока : 81,0 Мбайт (9%)
Язык : Russian
Аудио #2
Идентификатор : 3
Формат : AC-3
Формат/Информация : Audio Coding 3
Расширение режима : CM (complete main)
Идентификатор кодека : A_AC3
Продолжительность : 58 м.
Вид битрейта : Постоянный
Битрейт : 192 Кбит/сек
Каналы : 2 канала
Расположение каналов : Front: L R
Частота : 48,0 КГц
Битовая глубина : 16 бит
Метод сжатия : С потерями
Размер потока : 81,0 Мбайт (9%)
Язык : English
       
       
Вне форума [Профиль] [ЛС]
Показать сообщения:    
Ответить на тему

Текущее время: Сегодня 23:31

Часовой пояс: GMT + 3



Вы не можете начинать темы
Вы не можете отвечать на сообщения
Вы не можете редактировать свои сообщения
Вы не можете удалять свои сообщения
Вы не можете голосовать в опросах
Вы не можете прикреплять файлы к сообщениям
Вы не можете скачивать файлы