Сегодня идет свободное скачивание без начисления Download

Джек Тейлор / Jack Taylor (2010-2011) HDTVRip (Сезон1) [Серии: 1 из 3] [ViruseProject] (Обновляемая)

Ответить на тему
 
Автор
Сообщение

UndegraundMen ®

Стаж: 5 лет 10 месяцев

Сообщений: 25860

Торрент-статистика

Пост 16-Май-2013 00:31

[Цитировать]

Джек Тейлор / Jack Taylor (2010-2011) HDTVRip (Сезон1) [Серии: 1 из 3] [ViruseProject] (Обновляемая)- Русское название: Джек Тейлор
Оригинальное название: Jack Taylor
Год выпуска: 2010-2011
Жанр: детектив, нуар
Перевод: Многоголосый закадровый, любительский (ViruseProject)
Релиз группа: ViruseProject
Сэмпл:
Режиссер: Стюарт Орм
Актеры: Йен Глен ( Аббатство Даунтон, Игра престолов ) - Джек Тейлор, Ральф Браун - Саттон, Нора-Джейн Нун - Кейт Нунэн, Тара Бритнач - Энн Хендерсон, Фрэнк О'Салливан - Клэнси
Описание фильма:
Неисправимый, необузданный, одинокий Джек Тейлор уволен из Гарды (ирландской национальной полиции) за грубость по отношению к министру. Его опыт, кое-какие связи и дешевые расценки сослужили ему добрую службу, позволив начать карьеру частного детектива - профессии не слишком-то почитаемой в Ирландии.
Сериал снят по произведениям ирландского писателя, Кена Бруена, лауреата различных литературных премий, в том числе самой престижной в мире премии детективной литературы «NoirCon» и премии имени Эдгара По.
Продолжительность: ~01:25:00 Серия
Качество видео: HDTVRip
Формат: AVI
Видеокодек: Xvid
Видео: 720x400 (1.80:1), 25 fps, XviD build 50 ~1283 kbps avg, 0.18 bit/pixel
Аудиокодек: MP3
Аудио: 48 kHz, MPEG Layer 3, 2 ch, 192.00 kbps avg

Над релизом трудились:

Озвучка:
*Дмитрий Кравченко
*Дмитрий Иванов
*Владислав Данилов
*Марина Видякина
*Алла Блаер
Сведение звука, монтаж, подготовка видео: viruse (Виталий Емельянов)

MI

X:\ОЗВУЧКА\СЕРИАЛЫ\Jack.Тaylor.s01.ViruseProject\Jack.Тaylor.s01.ViruseProject\Jack.Тaylor.S01E01.ViruseProject.avi
General
Complete name : X:\ОЗВУЧКА\СЕРИАЛЫ\Jack.Тaylor.s01.ViruseProject\Jack.Тaylor.s01.ViruseProject\Jack.Тaylor.S01E01.ViruseProject.avi
Format : AVI
Format/Info : Audio Video Interleave
File size : 875 MiB
Duration : 1h 22mn
Overall bit rate : 1 485 Kbps
Writing application : VirtualDubMod 1.5.10.2 (build 2540/release)
Writing library : VirtualDubMod build 2540/release
Video #0
ID : 0
Format : MPEG-4 Visual
Format profile : Advanced Simple@L5
Format settings, BVOP : 1
Format settings, QPel : No
Format settings, GMC : No warppoints
Format settings, Matrix : Default (MPEG)
Codec ID : XVID
Codec ID/Hint : XviD
Duration : 1h 22mn
Bit rate : 1 284 Kbps
Width : 720 pixels
Height : 400 pixels
Display aspect ratio : 16:9
Frame rate : 25.000 fps
Color space : YUV
Chroma subsampling : 4:2:0
Bit depth : 8 bits
Scan type : Progressive
Compression mode : Lossy
Bits/(Pixel*Frame) : 0.178
Stream size : 756 MiB (86%)
Writing library : XviD 1.2.1 (UTC 2008-12-04)
Audio #1
ID : 1
Format : MPEG Audio
Format version : Version 1
Format profile : Layer 3
Mode : Joint stereo
Mode extension : MS Stereo
Codec ID : 55
Codec ID/Hint : MP3
Duration : 1h 22mn
Bit rate mode : Constant
Bit rate : 192 Kbps
Channel(s) : 2 channels
Sampling rate : 48.0 KHz
Compression mode : Lossy
Stream size : 113 MiB (13%)
Alignment : Aligned on interleaves
Interleave, duration : 40 ms (1.00 video frame)
Interleave, preload duration : 504 ms

Список серий и описание:

1 серия. Стражи порядка.
В первом же расследовании ему помогает его еще менее законопослушный "заклятый друг" юности, художник Саттон. Энн Хеннеси нанимает его на поиски своей пропавшей дочери, Сары, которая, как предполагается, была последней в целом ряду подозрительных "самоубийств" девушек-подростков, сбросившихся в реку с пирса Ниммо. По мере расследования Джек всё больше сомневается - "а была ли девочка" вообще? Расследование выводит Джека на одного из магнатов Голуэя, который покровительствует его другу-художнику. Что связывает их с убитой горем матерью? Джеку предстоит открыть много сюрпризов, в том числе и для себя...
2 серия. Пикинёры.
Спустя год после событий, происходивших в первой серии, Джек Тейлор возвращается в родной Голуэй. По приезде к нему обращается старый приятель отца за помощью в расследовании смерти своего сына, упавшего или сброшенного со строительных лесов. При помощи Коди, юного помощника, поклоняющегося Джеку как лучшему детективу Ирландии, Джек оказывается втянут в мир преступной группировки пикинёров, которая вершит правосудие над теми, кому, по мнению её лидера, удалось избежать законного наказания. Встретившись с бывшей возлюбленной, Энн Хендерсон, Джек обнаруживает, что она состоит в связи с местным бизнесменом, который пренебрежительно относится к ней, из-за чего возникает неизбежный конфликт. Через некотрое время Тейлора арестовыают по подозрению в убийстве бизнесмена. Бывшие коллеги довольно круто обходятся с ним, поэтому Джеку ничего не остаётся кроме побега из-под стражи, чтобы попытаться очистить своё имя.
3 серия. Мученицы Магдалины.
Мэгги Маккарти, дочь недавно умершей женщины, бывшей узницы монастыря Святой Моники, печально известного как Прачечные Магдалины в Голуэе, нанимает Джека Тейлора для поисков садистки-монахини, упоминаемой в дневнике её покойной матери под именем Люцифер, которая работала в прачечной в начале 60-х, отравляя жизнь юным заключённым, попадавшим туда за всевозможные провинности. Поиски осложнены тем, что из Церковного архива исчезают все записи, связанные с тем перидом времени, как будто кто-то покрывает злодейку-монахиню. По мере того, как дневник раскрывает всю глубину жестокости Люцифера, Джек докапывается до семейной тайны 50-летней давности, которая и выводит его на личность монахини и неожиданно обретает связь с современным убийством двух молодых сыновей бывшего коллеги по работе Джека.

Внимание! Раздача ведётся путём добавления новых серий

Внимание! Раздача ведётся путём добавления новых серий; при каждом добавлении создаётся новый торрент.
Чтобы начать докачку новой серии, пользователям необходимо сделать следующее:
1. Остановить скачивание;
2. Удалить старый торрент у себя из клиента (старые серии удалять не надо);
3. Скачать новый торрент и запустить его у себя в клиенте вместо старого, при этом указать клиенту путь в старую папку куда и должно происходить скачивание новых серий. Ваш клиент при этом должен произвести хеширование (проверку) старой папки и будет докачивать только те серии, которых у вас ещё нет. Старые серии при этом не удаляются, а продолжают раздаваться! Eсли вы уже удалили старые серии, то предотвратить повторную закачку старых серий можно, отжав галочку в соответствующих местах при запуске нового торрента.
Вне форума [Профиль] [ЛС]
Показать сообщения:    
Ответить на тему

Текущее время: Сегодня 14:26

Часовой пояс: GMT + 3



Вы не можете начинать темы
Вы не можете отвечать на сообщения
Вы не можете редактировать свои сообщения
Вы не можете удалять свои сообщения
Вы не можете голосовать в опросах
Вы не можете прикреплять файлы к сообщениям
Вы не можете скачивать файлы