Сегодня идет свободное скачивание без начисления Download

Держись, Чарли! / Good Luck Charlie [Сезон: 3 / Серии: 1-20 из ???] (2012) HDTVRip / WEB-DLRip

Ответить на тему
 
Автор
Сообщение

UndegraundMen ®

Стаж: 5 лет 7 месяцев

Сообщений: 25860

Торрент-статистика

Пост 15-Май-2013 00:05

[Цитировать]

Держись, Чарли! / Good Luck Charlie [Сезон: 3 / Серии: 1-20 из ???] (2012) HDTVRip / WEB-DLRip- Русское название: Держись, Чарли!
Оригинальное название: Good Luck Charlie
Год выпуска: 2012
Жанр: Комедия, семейный
Производство: США
Перевод: Полное дублирование (Канал Disney)
Субтитры: Отсутствуют
Описание фильма:После того как мама возвращается к работе медсестры, а папа с головой уходит в свой бизнес, воспитание девочки ложится на плечи ее старшей сестры 15-летней Тедди и братьев — 17-летнего Пи-Джея и 10-летнего Гейба. При этом ребятам приходится сочетать уход за маленькой сестренкой с учебой в школе, одновременно справляясь со всеми трудностями подросткового возраста.Режиссер: Шелли Дженсен
В ролях: Бриджит Мендлер, Ли Эллин Бэйкер, Брэдли Стивен Перри, Эрик Аллан Крамер, Джейсон Долли, Шэйн Харпер
Продолжительность: 20 x ~ 00:23:00

Дата мировой премьеры: 4 апреля 2010
Дата премьеры в России: 2 января 2010
Видеокодек: AVI (XviD)
Битрейт видео: ~1 568 Kbps
Размер кадра: 720х400
Качество видео: HDTVRip / WEB-DLRip
Аудиокодек: AC3, 2 ch
Битрейт аудио: 192 kb/s

MediaInfo:

General
Format : AVI
Format/Info : Audio Video Interleave
File size : 302 MiB
Duration : 23mn 49s
Overall bit rate : 1 770 Kbps
Writing application : VirtualDubMod 1.5.10.3 | (build 2550/release)
Writing library : VirtualDubMod build 2550/release
Video
ID : 0
Format : MPEG-4 Visual
Format profile : Advanced Simple@L5
Format settings, BVOP : 2
Format settings, QPel : No
Format settings, GMC : No warppoints
Format settings, Matrix : Default (MPEG)
Codec ID : DX50
Codec ID/Hint : DivX 5
Duration : 23mn 49s
Bit rate : 1 568 Kbps
Width : 720 pixels
Height : 400 pixels
Display aspect ratio : 16:9
Frame rate : 23.976 fps
Color space : YUV
Chroma subsampling : 4:2:0
Bit depth : 8 bits
Scan type : Progressive
Compression mode : Lossy
Bits/(Pixel*Frame) : 0.227
Stream size : 267 MiB (89%)
Writing library : XviD 1.2.1 (UTC 2008-12-04)
Audio
ID : 1
Format : AC-3
Format/Info : Audio Coding 3
Mode extension : CM (complete main)
Codec ID : 2000
Duration : 23mn 49s
Bit rate mode : Constant
Bit rate : 192 Kbps
Channel(s) : 2 channels
Channel positions : Front: L R
Sampling rate : 48.0 KHz
Bit depth : 16 bits
Compression mode : Lossy
Stream size : 32.7 MiB (11%)
Alignment : Split accross interleaves
Interleave, duration : 42 ms (1.00 video frame)
Interleave, preload duration : 500 ms
Скриншоты:
         
-Внимание! Раздача ведётся путём добавления новых серий!

Описание обновления торрента:

Внимание! Раздача ведётся путём добавления новых серий; при каждом добавлении создаётся новый торрент.
Чтобы начать докачку новой серии, пользователям необходимо сделать следующее:
(1) остановить скачивание;
(2) удалить старый торрент у себя из клиента (старые серии удалять не надо);
(3) скачать новый торрент и запустить его у себя в клиенте вместо старого, при этом указать клиенту путь в старую папку куда и должно происходить скачивание новых серий.Ваш клиент при этом должен произвести хеширование (проверку) старой папки (если не производит сам - помогите ему сделать это), и будет докачивать только те серии которых у вас ещё нет. Старые серии при этом не удаляются, а продолжают раздаваться!Eсли вы уже удалили старые серии, то предотвратить повторную закачку старых серий можно, отжав галочку в соответствующих местах при запуске нового торрента.
Вне форума [Профиль] [ЛС]
Показать сообщения:    
Ответить на тему

Текущее время: Сегодня 14:45

Часовой пояс: GMT + 3



Вы не можете начинать темы
Вы не можете отвечать на сообщения
Вы не можете редактировать свои сообщения
Вы не можете удалять свои сообщения
Вы не можете голосовать в опросах
Вы не можете прикреплять файлы к сообщениям
Вы не можете скачивать файлы