Сегодня идет свободное скачивание без начисления Download

Тяжелый понедельник / Monday Mornings (2013) WEB-DLRip [сезон 1 (серии 1 из 10)] (Fox Life) (Обновляемая)

Ответить на тему
 
Автор
Сообщение

UndegraundMen ®

Стаж: 5 лет 3 месяца

Сообщений: 25871

Торрент-статистика

Пост 15-Май-2013 00:05

[Цитировать]

Тяжелый понедельник / Monday Mornings (2013) WEB-DLRip [сезон 1 (серии 1 из 10)] (Fox Life) (Обновляемая)- Русское название: Тяжелый понедельник
Оригинальное название: Monday Mornings
Год выпуска: 2013
Жанр: Драма
Перевод: Многоголосый закадровый, профессиональный
Озвучка / Автор перевода: Fox Life
Релиз группа: NewStudio

Дата мировой премьеры: 04.02.2013
Дата российской премьеры: 13.05.2013
Режиссер: Билл Д’Элиа, Майк Листо
Актеры: Винг Реймз, Джейми Бамбер, Дженнифер Финниган, Билл Ирвин, Кеонг Сим, Сарайю Рао, Эмили Суоллоу
Описание фильма:
Сериал расскажет историю жизни пяти хирургов, которые пытаются бороться со своими личными и профессиональными недостатками. Каждый понедельник они должны собираться со своими коллегами, для конфиденциального рассмотрения ошибок и осложнений в уходе за больными.
Продолжительность: 1x ~00:45:00
Качество видео: WEB-DLRip
Видеокодек: Xvid
Битрейт видео: ~1406 kb/s
Размер кадра: 720x400
Аудио Rus: MP3, 128 Кбит/сек, 2 канала |Fox life|
Аудио Eng: MP3, 128 Кбит/сек, 2 канала |Original|
Сэмпл: Скачать
Скриншоты:
         

Mediainfo

Общее
Полное имя : [/*spam*/]_Monday.Mornings.s01.WEBDLRip.NewStudio.TV\Monday.Mornings.s01e01.WEBDLRip.NewStudio.TV.avi
Формат : AVI
Формат/Информация : Audio Video Interleave
Размер файла : 550 Мбайт
Продолжительность : 45 м.
Общий поток : 1677 Кбит/сек
Программа кодирования : VirtualDubMod 1.5.10.2 (build 2540/release)
Библиотека кодирования : VirtualDubMod build 2540/release
Видео
Идентификатор : 0
Формат : MPEG-4 Visual
Профиль формата : Advanced Simple@L5
Параметр BVOP формата : 2
Параметр QPel формата : Нет
Параметр GMC формата : Без точки перехода
Параметр матрицы формата : Default (MPEG)
Идентификатор кодека : XVID
Идентификатор кодека/Подсказка : XviD
Продолжительность : 45 м.
Битрейт : 1407 Кбит/сек
Ширина : 720 пикселей
Высота : 400 пикселей
Соотношение сторон : 16:9
Частота кадров : 23,976 кадра/сек
Цветовое пространство : YUV
Субдискретизация насыщенности : 4:2:0
Битовая глубина : 8 бит
Тип развёртки : Прогрессивная
Метод сжатия : С потерями
Бит/(Пиксели*Кадры) : 0.204
Размер потока : 461 Мбайт (84%)
Библиотека кодирования : XviD 64
Аудио #1
Идентификатор : 1
Формат : MPEG Audio
Версия формата : Version 1
Профиль формата : Layer 3
Режим : Joint stereo
Расширение режима : MS Stereo
Идентификатор кодека : 55
Идентификатор кодека/Подсказка : MP3
Продолжительность : 45 м.
Вид битрейта : Постоянный
Битрейт : 128 Кбит/сек
Каналы : 2 канала
Частота : 48,0 КГц
Метод сжатия : С потерями
Размер потока : 42,0 Мбайт (8%)
Выравнивание : Соединение по промежуткам
Продолжительность промежутка : 42 мс. (1,00 видеокадр)
Время предзагрузки промежутка : 504 мс.
Аудио #2
Идентификатор : 2
Формат : MPEG Audio
Версия формата : Version 1
Профиль формата : Layer 3
Режим : Joint stereo
Расширение режима : MS Stereo
Идентификатор кодека : 55
Идентификатор кодека/Подсказка : MP3
Продолжительность : 45 м.
Вид битрейта : Постоянный
Битрейт : 128 Кбит/сек
Каналы : 2 канала
Частота : 48,0 КГц
Метод сжатия : С потерями
Размер потока : 42,0 Мбайт (8%)
Выравнивание : Соединение по промежуткам
Продолжительность промежутка : 42 мс. (1,00 видеокадр)
Время предзагрузки промежутка : 504 мс.

Внимание! Раздача ведётся путём добавления новых серий

Внимание! Раздача ведётся путём добавления новых серий; при каждом добавлении создаётся новый торрент.
Чтобы начать докачку новой серии, пользователям необходимо сделать следующее:
1. Остановить скачивание;
2. Удалить старый торрент у себя из клиента (старые серии удалять не надо);
3. Скачать новый торрент и запустить его у себя в клиенте вместо старого, при этом указать клиенту путь в старую папку куда и должно происходить скачивание новых серий. Ваш клиент при этом должен произвести хеширование (проверку) старой папки и будет докачивать только те серии, которых у вас ещё нет. Старые серии при этом не удаляются, а продолжают раздаваться! Eсли вы уже удалили старые серии, то предотвратить повторную закачку старых серий можно, отжав галочку в соответствующих местах при запуске нового торрента.
Вне форума [Профиль] [ЛС]
Показать сообщения:    
Ответить на тему

Текущее время: Сегодня 00:20

Часовой пояс: GMT + 3



Вы не можете начинать темы
Вы не можете отвечать на сообщения
Вы не можете редактировать свои сообщения
Вы не можете удалять свои сообщения
Вы не можете голосовать в опросах
Вы не можете прикреплять файлы к сообщениям
Вы не можете скачивать файлы