Сегодня идет свободное скачивание без начисления Download

Американцы / The Americans (2013) WEB-DL 720p (Сезон 1 / Серии 1-13 из 13) NewStudio

Ответить на тему
 
Автор
Сообщение

UndegraundMen ®

Стаж: 5 лет 6 месяцев

Сообщений: 25861

Торрент-статистика

Пост 12-Май-2013 00:03

[Цитировать]

Американцы / The Americans (2013) WEB-DL 720p (Сезон 1 / Серии 1-13 из 13) NewStudio- Русское название: Американцы
Оригинальное название: The Americans
Год выпуска: 2013
Дата мировой премьеры: 30 января 2013
Жанр: Драма, Криминал
Перевод: Многоголосый закадровый, профессиональный - NewStudio
Вид субтитров: Отсутствуют

Режиссер: Адам Аркин
Актеры: Дэмиен Боско, Чейз Коулмэн, Майкл Дивайн, Ноа Эммерик, Лалэйн Фаби, Кевин МакКормик, Дэннис Риис, Мэттью Риз, Роман Ройтберг, Кери Рассел
Описание фильма:
История о сложном браке двух агентов КГБ, которые под видом американцев заселяются в пригород Вашингтона сразу после того, как президентом избирают Рейгана. Подставной брак Филлипа и Элизабет с каждым днем становится все более настоящим и эмоциональным, несмотря на эскалацию холодной войны и опасные отношения, которые они должны поддерживать с сетью шпионов и информаторов. Напряжение нарастает, когда появляется новый сосед Стэн, агент ФБР, который работает в контрразведке.
Продолжительность: 13 серий по ~00:45:00
Качество видео: WEBDL.720p.
Видеокодек: AVC
Формат: MKV
Битрейт видео: ~4000 kbps
Размер кадра: 1280x718 (16:9)
Аудиокодек: AC3
Битрейт аудио: 384 kbps
Аудио #1: Русский (MP3, 384 kbps, 6 ch)-многоголосый (NewStudio)
Аудио #2: Английский (MP3, 384 kbps, 6 ch)-оригинал
Сэмпл: Скачать

MediaInfo

Общее
Полное имя : C:\Downloads\The.Americans.s01.WEBDL.720p.NewStudio.TV\The.Americans.s01e04.WEBDL.720p.NewStudio.TV.mkv
Формат : Matroska
Версия формата : Version 4 / Version 2
Размер файла : 1,48 Гбайт
Продолжительность : 44 м.
Общий поток : 4809 Кбит/сек
Дата кодирования : UTC 2013-02-24 20:28:20
Программа кодирования : mkvmerge v6.0.0 ('Coming Up For Air') built on Jan 20 2013 09:52:00
Библиотека кодирования : libebml v1.3.0 + libmatroska v1.4.0
Видео
Идентификатор : 1
Формат : AVC
Формат/Информация : Advanced Video Codec
Профиль формата : [url=mailto:High@L3.1]High@L3.1[/url]
Параметр CABAC формата : Нет
Параметр ReFrames формата : 2 кадра
Идентификатор кодека : V_MPEG4/ISO/AVC
Продолжительность : 44 м.
Битрейт : 3945 Кбит/сек
Ширина : 1280 пикселей
Высота : 718 пикселей
Соотношение сторон : 16:9
Режим частоты кадров : Постоянный
Частота кадров : 23,976 кадра/сек
Цветовое пространство : YUV
Субдискретизация насыщенности : 4:2:0
Битовая глубина : 8 бит
Тип развёртки : Прогрессивная
Бит/(Пиксели*Кадры) : 0.179
Размер потока : 1,22 Гбайт (82%)
Язык : English
Default : Да
Forced : Нет
Основные цвета : BT.709
Характеристики трансфера : BT.709
Коэффициенты матрицы : BT.709
Аудио #1
Идентификатор : 2
Формат : AC-3
Формат/Информация : Audio Coding 3
Расширение режима : CM (complete main)
Параметр Endianness формата : Big
Идентификатор кодека : A_AC3
Продолжительность : 44 м.
Вид битрейта : Постоянный
Битрейт : 384 Кбит/сек
Каналы : 6 каналов
Расположение каналов : Front: L C R, Side: L R, LFE
Частота : 48,0 КГц
Битовая глубина : 16 бит
Метод сжатия : С потерями
Размер потока : 121 Мбайт (8%)
Язык : Russian
Default : Да
Forced : Нет
Аудио #2
Идентификатор : 3
Формат : AC-3
Формат/Информация : Audio Coding 3
Расширение режима : CM (complete main)
Параметр Endianness формата : Big
Идентификатор кодека : A_AC3
Продолжительность : 44 м.
Вид битрейта : Постоянный
Битрейт : 384 Кбит/сек
Каналы : 6 каналов
Расположение каналов : Front: L C R, Side: L R, LFE
Частота : 48,0 КГц
Битовая глубина : 16 бит
Метод сжатия : С потерями
Размер потока : 121 Мбайт (8%)
Язык : English
Default : Нет
Forced : Нет
Скриншоты:
       
Вне форума [Профиль] [ЛС]
Похожие темы
Форум Тема Автор Торрент Отв. Посл. сообщение
./templates/default/images/folder_dl.gif Справочники, энциклопедии и словари Э.Ф. Телень, М.Ю. Полевая | Язык английской и американской прессы. Учебное пособие по английскому языку (2006) [PDF] [En] UndegraundMen
0 | 1

0 | 542

3

2013-10-15 11:42
UndegraundMen Последнее
./templates/default/images/folder_dl.gif Обучающее видео Илья Нодия | Американская рекламная фотография (2015) CamRip [H.264/720p] Omen
1 | 0

0 | 809

17

2015-10-03 20:37
Omen Последнее
Показать сообщения:    
Ответить на тему

Текущее время: Сегодня 16:41

Часовой пояс: GMT + 3



Вы не можете начинать темы
Вы не можете отвечать на сообщения
Вы не можете редактировать свои сообщения
Вы не можете удалять свои сообщения
Вы не можете голосовать в опросах
Вы не можете прикреплять файлы к сообщениям
Вы не можете скачивать файлы