Сегодня идет свободное скачивание без начисления Download

Сестра Джеки / Nurse Jackie (2013) HDTV 720p [01 из 10] [5 Сезон] (NewStudio) (Обновляемая)

Ответить на тему
 
Автор
Сообщение

UndegraundMen ®

Стаж: 5 лет 6 месяцев

Сообщений: 25860

Торрент-статистика

Пост 12-Май-2013 00:03

[Цитировать]

Сестра Джеки / Nurse Jackie (2013) HDTV 720p [01 из 10] [5 Сезон] (NewStudio) (Обновляемая)- Русское название: Сестра Джеки
Оригинальное название: Nurse Jackie
Год выпуска: 2013
Жанр: Комедия, Драма
Перевод: Многоголосый закадровый, профессиональный
Вид субтитров: Вшитые отключаемые
Язык субтитров: Русские
Релиз группа: NewStudio
СЭМПЛ

Режиссер: Пол Фейг, Стив Бушеми, Крейг Зиск
Актеры: Эди Фалько, Питер Фассенелли, Доминик Фумуса, Пол Шульц, Ив Бест и др.
Описание фильма:
Мрачная получасовая комедия, которая может быть как смешной, так и печальной. Иди Фалько играет главную героиню, Джеки Пейтон, волевую и талантливую – но очень испорченную – медсестру скорой помощи в больнице Нью-Йорка. Отошедшая от церкви католичка, которая питает слабость к Викодину и Аддероллу, Джеки пытается вершить свою справедливость в больнице. Каждый день для нее – нелегкий выбор между пациентами, докторами, другими медсестрами и собственными слабостями...
Продолжительность: серия~ 00:30:00
Качество видео: HDTV 720p
Видеокодек: AVC
Аудиокодек: AC-3, 6ch
Размер кадра: 1280x720
Битрейт видео: ~3999 kbps
Аудио Rus: ~384 kbps |NewStudio|
Аудио Eng: ~384 kbps |Original|Внимание!!!
Сериал содержит ненормативную лексику и сцены сексуального характера, не рекомендуется к просмотру лицам до 18 лет!
-

MediaInfo

Общее
Формат: Matroska
Версия формата: Version 2
Размер файла: 988 Мбайт
Продолжительность: 28 м.
Общий поток: 4864 Кбит/сек
Название фильма: Nurse Jackie - S05E01 - "Happy Fucking Birthday"
Дата кодирования: UTC 2013-05-09 15:18:16
Программа кодирования: mkvmerge v2.9.9 ('Tutu') built on Nov 25 2009 21:13:32
Библиотека кодирования: libebml v0.7.9 + libmatroska v0.8.1
Видео
Идентификатор: 1
Формат: AVC
Формат/Информация: Advanced Video Codec
Профиль формата: [url=mailto:High@L4.1]High@L4.1[/url]
Параметр CABAC формата: Да
Параметр ReFrames формата: 9 кадров
Идентификатор кодека: V_MPEG4/ISO/AVC
Продолжительность: 28 м.
Битрейт: 3999 Кбит/сек
Ширина: 1280 пикселей
Высота: 720 пикселей
Соотношение сторон: 16:9
Частота кадров: 23,976 кадра/сек
Цветовое пространство: YUV
Субдискретизация насыщенности: 4:2:0
Битовая глубина: 8 бит
Тип развёртки: Прогрессивная
Бит/(Пиксели*Кадры): 0.181
Размер потока: 813 Мбайт (82%)
Библиотека кодирования: x264 core 129 r2245 bc13772
Язык: English
Default: Да
Forced : Нет
Коэффициенты матрицы: BT.709-5, BT.1361, IEC 61966-2-4 709, SMPTE RP177
Аудио #1
Идентификатор: 2
Формат: AC-3
Формат/Информация: Audio Coding 3
Расширение режима: CM (complete main)
Параметр Endianness формата: Big
Идентификатор кодека: A_AC3
Продолжительность: 28 м.
Вид битрейта: Постоянный
Битрейт: 384 Кбит/сек
Каналы: 6 каналов
Расположение каналов: Front: L C R, Side: L R, LFE
Частота: 48,0 КГц
Битовая глубина: 16 бит
Метод сжатия: С потерями
Размер потока: 78,0 Мбайт (8%)
Заголовок: NewStudio.TV
Язык: Russian
Default: Да
Forced: Нет
Аудио #2
Идентификатор: 3
Формат: AC-3
Формат/Информация: Audio Coding 3
Расширение режима: CM (complete main)
Параметр Endianness формата: Big
Идентификатор кодека: A_AC3
Продолжительность: 28 м.
Вид битрейта: Постоянный
Битрейт: 384 Кбит/сек
Каналы: 6 каналов
Расположение каналов: Front: L C R, Side: L R, LFE
Частота: 48,0 КГц
Битовая глубина: 16 бит
Метод сжатия: С потерями
Размер потока: 78,0 Мбайт (8%)
Язык: English
Default: Нет
Forced: Нет
Текст #1
Идентификатор: 4
Формат: UTF-8
Идентификатор кодека: S_TEXT/UTF8
Идентификатор кодека/Информация: UTF-8 Plain Text
Заголовок: Илья Белкин. NewStudio.TV
Язык: Russian
Default: Нет
Forced: Нет
Текст #2
Идентификатор: 5
Формат: UTF-8
Идентификатор кодека: S_TEXT/UTF8
Идентификатор кодека/Информация: UTF-8 Plain Text
Язык: English
Default: Нет
Forced: Нет

-

Внимание! Раздача ведётся путём добавления новых серий!

Внимание! Раздача ведётся путём добавления новых серий; при каждом добавлении создаётся новый торрент.
Чтобы начать докачку новой серии, пользователям необходимо сделать следующее:
(1) остановить скачивание;
(2) удалить старый торрент у себя из клиента (старые серии удалять не надо);
(3) скачать новый торрент и запустить его у себя в клиенте вместо старого, при этом указать клиенту путь в старую папку куда и должно происходить скачивание новых серий.Ваш клиент при этом должен произвести хеширование (проверку) старой папки (если не производит сам - помогите ему сделать это), и будет докачивать только те серии которых у вас ещё нет. Старые серии при этом не удаляются, а продолжают раздаваться!Eсли вы уже удалили старые серии, то предотвратить повторную закачку старых серий можно, отжав галочку в соответствующих местах при запуске нового торрента.
-Скриншоты:
       
Вне форума [Профиль] [ЛС]
Показать сообщения:    
Ответить на тему

Текущее время: Сегодня 15:08

Часовой пояс: GMT + 3



Вы не можете начинать темы
Вы не можете отвечать на сообщения
Вы не можете редактировать свои сообщения
Вы не можете удалять свои сообщения
Вы не можете голосовать в опросах
Вы не можете прикреплять файлы к сообщениям
Вы не можете скачивать файлы