Сегодня идет свободное скачивание без начисления Download

Сестра Джеки / Nurse Jackie (2013) HDTVRip [сезон 5 (1 из 10)] [NewStudio] (Обновляемая)

Ответить на тему
 
Автор
Сообщение

UndegraundMen ®

Стаж: 5 лет 3 месяца

Сообщений: 25871

Торрент-статистика

Пост 12-Май-2013 00:03

[Цитировать]

Сестра Джеки / Nurse Jackie (2013) HDTVRip [сезон 5 (1 из 10)] [NewStudio]- Русское название: Сестра Джеки
Оригинальное название: Nurse Jackie
Год выпуска: 2013
Жанр: Драма, Комедия
Перевод: Двуголосый закадровый, профессиональный
Язык: NewStudio
Озвучка / Автор перевода: Юлия Котурбаш, Илья Демьянов / Илья Белкин
Вид субтитров: Отдельным файлом
Язык субтитров: Русские
Релиз группа: NewStudio

Сэмпл: Скачать
Дата мировой премьеры: 14.04.2013
Режиссер: Пол Фейг, Стив Бушеми, Крейг Зиск
Актеры: Иди Фалько, Питер Фасинелли, Доминик Фумуса, Пол Шульц, Ив Бест
Описание фильма:
«Nurse Jackie» – мрачная получасовая комедия, которая может быть как смешной, так и печальной. Иди Фалько играет главную героиню, Джеки О’Херли, волевую и талантливую – но очень испорченную – медсестру скорой помощи в больнице Нью-Йорка. Отошедшая от церкви католичка, которая питает слабость к Викодину и Аддероллу, Джеки пытается вершить свою справедливость в больнице. Каждый день для нее – нелегкий выбор между пациентами, докторами, другими медсестрами и собственными слабостями.
Продолжительность: 1x ~00:28
Качество видео: HDTVRip
Видеокодек: Xvid
Битрейт видео: ~1441 kb/s
Размер кадра: 720x400
Аудио Rus: MP3, 128 Кбит/сек, 2 канала |NewStudio|
Аудио Eng: MP3, 128 Кбит/сек, 2 канала |Original|
Скриншоты:
       

Mediainfo:

Общее
Полное имя : \\[/*spam*/]_Nurse.Jackie.hdtv_NewStudio.TV\nurse.jackie.s05e01.hdtv_NewStudio.TV.avi
Формат : AVI
Формат/Информация : Audio Video Interleave
Размер файла : 350 Мбайт
Продолжительность : 28 м.
Общий поток : 1712 Кбит/сек
Программа кодирования : VirtualDubMod 1.5.10.2 (build 2540/release)
Библиотека кодирования : VirtualDubMod build 2540/release
Видео
Идентификатор : 0
Формат : MPEG-4 Visual
Профиль формата : Advanced Simple@L5
Параметр BVOP формата : 2
Параметр QPel формата : Нет
Параметр GMC формата : Без точки перехода
Параметр матрицы формата : Default (MPEG)
Идентификатор кодека : XVID
Идентификатор кодека/Подсказка : XviD
Продолжительность : 28 м.
Битрейт : 1443 Кбит/сек
Ширина : 720 пикселей
Высота : 400 пикселей
Соотношение сторон : 16:9
Частота кадров : 23,976 кадра/сек
Цветовое пространство : YUV
Субдискретизация насыщенности : 4:2:0
Битовая глубина : 8 бит
Тип развёртки : Прогрессивная
Метод сжатия : С потерями
Бит/(Пиксели*Кадры) : 0.209
Размер потока : 295 Мбайт (84%)
Библиотека кодирования : XviD 65
Аудио #1
Идентификатор : 1
Формат : MPEG Audio
Версия формата : Version 1
Профиль формата : Layer 3
Режим : Joint stereo
Расширение режима : MS Stereo
Идентификатор кодека : 55
Идентификатор кодека/Подсказка : MP3
Продолжительность : 28 м.
Вид битрейта : Постоянный
Битрейт : 128 Кбит/сек
Каналы : 2 канала
Частота : 44,1 КГц
Метод сжатия : С потерями
Размер потока : 26,1 Мбайт (7%)
Выравнивание : Соединение по промежуткам
Продолжительность промежутка : 42 мс. (1,00 видеокадр)
Время предзагрузки промежутка : 522 мс.
Аудио #2
Идентификатор : 2
Формат : MPEG Audio
Версия формата : Version 1
Профиль формата : Layer 3
Режим : Joint stereo
Расширение режима : MS Stereo
Идентификатор кодека : 55
Идентификатор кодека/Подсказка : MP3
Продолжительность : 28 м.
Вид битрейта : Постоянный
Битрейт : 128 Кбит/сек
Каналы : 2 канала
Частота : 48,0 КГц
Метод сжатия : С потерями
Размер потока : 26,2 Мбайт (7%)
Выравнивание : Соединение по промежуткам
Продолжительность промежутка : 42 мс. (1,00 видеокадр)
Время предзагрузки промежутка : 504 мс.
Библиотека кодирования : LAME3.99r
Настройки программы : -m j -V 4 -q 2 -lowpass 17 -b 128

Внимание! Раздача ведётся путём добавления новых серий

Внимание! Раздача ведётся путём добавления новых серий; при каждом добавлении создаётся новый торрент.
Чтобы начать докачку новой серии, пользователям необходимо сделать следующее:
1. Остановить скачивание;
2. Удалить старый торрент у себя из клиента (старые серии удалять не надо);
3. Скачать новый торрент и запустить его у себя в клиенте вместо старого, при этом указать клиенту путь в старую папку куда и должно происходить скачивание новых серий. Ваш клиент при этом должен произвести хеширование (проверку) старой папки и будет докачивать только те серии, которых у вас ещё нет. Старые серии при этом не удаляются, а продолжают раздаваться! Eсли вы уже удалили старые серии, то предотвратить повторную закачку старых серий можно, отжав галочку в соответствующих местах при запуске нового торрента.
Вне форума [Профиль] [ЛС]
Показать сообщения:    
Ответить на тему

Текущее время: Сегодня 22:26

Часовой пояс: GMT + 3



Вы не можете начинать темы
Вы не можете отвечать на сообщения
Вы не можете редактировать свои сообщения
Вы не можете удалять свои сообщения
Вы не можете голосовать в опросах
Вы не можете прикреплять файлы к сообщениям
Вы не можете скачивать файлы