Сегодня идет свободное скачивание без начисления Download

Война Фойла / Foyle\'s War (2002 – 2010) BDRip 720p, HDTV 720p [1-7 сезон]

Ответить на тему
 
Автор
Сообщение

UndegraundMen ®

Стаж: 5 лет 4 месяца

Сообщений: 25870

Торрент-статистика

Пост 11-Май-2013 00:00

[Цитировать]

Война Фойла / Foyle's War (2002 – 2010) BDRip 720p, HDTV 720p [1,2,3,4,5,6,7 сезон] - Русское название: Война Фойла
Оригинальное название: Foyle's War
Год выпуска: 2002 – 2010
Страна: Великобритания
Жанр: Детектив
Продолжительность: 22 серии по ~01:35:00
Перевод: Профессиональный многоголосый закадровый Hallmark Russia
Профессиональный многоголосый закадровый Студия Лексикон по заказу ТВЦ (1, 2 сезон)
Режиссер: Джереми Силберстон, Гэвин Миллар, Тристрам Пауэлл
Сценарий: Энтони Хоровиц
Актеры: Майкл Кичен, Ханисакл Уикс, Энтони Хауэлл, Джей Симпсон, Джулиан Овенден, Джеффри Фрешуотер, Мали Харрис, Майкл Симкинс, Макс Браун, Элли Хаддингтон и др.
Описание:
Англия, 1941 год. Европа охвачена огнем войны. На южном побережье Англии скопилось множество разношерстной публики: эвакуированные из захваченных районов семьи, американские войска, отряды сопротивления, беженцы из нацистской Германии и множество всякого сброда со всей Европы, среди которого есть немало шпионов.
Кристофер Фойл, детектив средних лет, очень хочет уйти на фронт. Но беда в том, что он слишком нужен здесь, в родном Суссексе, где Фойл вынужден вести свою маленькую войну против убийц, воров, подпольных торговцев и предателей…


Подготовка видео: ClubMember

Качество: BDRip 720p (1-6 сезоны), HDTV 720p (7 сезон)
Формат: MKV
Видео кодек: AVC
Аудио кодек: AC3
Видео: 1280x720, 25 fps, AVC, ~5 770 Kbps, ~0.250 bit/pixel
Аудио RUS 1: AC3, 48 KHz, 2 ch, 192 Kbps Hallmark Russia (remastered)
Аудио RUS 2: AC3, 48 KHz, 2 ch, 192 Kbps Студия Лексикон по заказу ТВЦ (1, 2 сезон)
Аудио ENG: AC3, 48 KHz, 2 ch, 640 Kbps

MediaInfo

1-й сезон

Полное имя : F:\Сериал\война фойла\Foyle's War Series 1 BluRay 720p\Foyle's.War.s01e01.The.German.Woman.BluRay.720p.2xRus.Eng.mkv
Формат : Matroska
Версия формата : Version 2
Размер файла : 4,63 Гбайт
Продолжительность : 1 ч. 38 м.
Общий поток : 6721 Кбит/сек
Дата кодирования : UTC 2012-12-03 16:05:02
Программа кодирования : mkvmerge v5.7.0 ('The Whirlwind') built on Jul 15 2012 00:01:52
Библиотека кодирования : libebml v1.2.2 + libmatroska v1.3.0
Видео
Идентификатор : 1
Формат : AVC
Формат/Информация : Advanced Video Codec
Профиль формата : [url=mailto:High@L4.1]High@L4.1[/url]
Параметр CABAC формата : Да
Параметр ReFrames формата : 5 кадров
Идентификатор кодека : V_MPEG4/ISO/AVC
Продолжительность : 1 ч. 38 м.
Битрейт : 5697 Кбит/сек
Ширина : 1280 пикс.
Высота : 720 пикс.
Соотношение сторон : 16:9
Частота кадров : 25,000 кадр/сек
Цветовое пространство : YUV
Подвыборка цветности : 4:2:0
Битовая глубина : 8 бит
Тип развёртки : Прогрессивная
Бит/(Пиксели*Кадры) : 0.247
Размер потока : 3,83 Гбайт (83%)
Заголовок : By PFa
Библиотека кодирования : x264 core 104 r1683 62997d6
Настройки программы : cabac=1 / ref=5 / deblock=1:0:0 / analyse=0x3:0x133 / me=umh / subme=8 / psy=1 / psy_rd=1.00:0.00 / mixed_ref=1 / me_range=16 / chroma_me=1 / trellis=1 / 8x8dct=1 / cqm=0 / deadzone=21,11 / fast_pskip=0 / chroma_qp_offset=-2 / threads=3 / sliced_threads=0 / nr=0 / decimate=1 / interlaced=0 / constrained_intra=0 / bframes=3 / b_pyramid=2 / b_adapt=1 / b_bias=0 / direct=1 / weightb=1 / open_gop=0 / weightp=2 / keyint=250 / keyint_min=25 / scenecut=40 / intra_refresh=0 / rc_lookahead=40 / rc=2pass / mbtree=1 / bitrate=5697 / ratetol=1.0 / qcomp=0.60 / qpmin=10 / qpmax=51 / qpstep=4 / cplxblur=20.0 / qblur=0.5 / ip_ratio=1.40 / aq=1:1.00
Язык : English
Аудио #1
Идентификатор : 2
Формат : AC-3
Формат/Информация : Audio Coding 3
Расширение режима : CM (complete main)
Идентификатор кодека : A_AC3
Продолжительность : 1 ч. 38 м.
Вид битрейта : Постоянный
Битрейт : 192 Кбит/сек
Каналы : 2 канала
Расположение каналов : Front: L R
Частота : 48,0 КГц
Битовая глубина : 16 бит
Метод сжатия : С потерями
Размер потока : 135 Мбайт (3%)
Заголовок : MVO Hallmark Russia 2.0 @ 192 Kbps
Язык : Russian
Аудио #2
Идентификатор : 3
Формат : AC-3
Формат/Информация : Audio Coding 3
Расширение режима : CM (complete main)
Идентификатор кодека : A_AC3
Продолжительность : 1 ч. 38 м.
Вид битрейта : Постоянный
Битрейт : 192 Кбит/сек
Каналы : 2 канала
Расположение каналов : Front: L R
Частота : 48,0 КГц
Битовая глубина : 16 бит
Метод сжатия : С потерями
Размер потока : 135 Мбайт (3%)
Заголовок : MVO Lexicon / TVC Russia 2.0 @ 192 Kbps
Язык : Russian
Аудио #3
Идентификатор : 4
Формат : AC-3
Формат/Информация : Audio Coding 3
Расширение режима : CM (complete main)
Идентификатор кодека : A_AC3
Продолжительность : 1 ч. 38 м.
Вид битрейта : Постоянный
Битрейт : 640 Кбит/сек
Каналы : 2 канала
Расположение каналов : Front: L R
Частота : 48,0 КГц
Битовая глубина : 16 бит
Метод сжатия : С потерями
Размер потока : 451 Мбайт (10%)
Заголовок : Original 2.0 @ 640 Kbps
Язык : English

2-й сезон

Полное имя : F:\Сериал\война фойла\Foyle's War Series 2 BluRay 720p\Foyle's.War.S02E01.Fifty.Ships.BluRay.720p.2xRus.Eng.mkv
Формат : Matroska
Версия формата : Version 2
Размер файла : 4,63 Гбайт
Продолжительность : 1 ч. 39 м.
Общий поток : 6690 Кбит/сек
Дата кодирования : UTC 2013-01-30 08:57:10
Программа кодирования : mkvmerge v5.7.0 ('The Whirlwind') built on Jul 15 2012 00:01:52
Библиотека кодирования : libebml v1.2.2 + libmatroska v1.3.0
Видео
Идентификатор : 1
Формат : AVC
Формат/Информация : Advanced Video Codec
Профиль формата : [url=mailto:High@L4.1]High@L4.1[/url]
Параметр CABAC формата : Да
Параметр ReFrames формата : 5 кадров
Параметры GOP формата : M=4, N=24
Идентификатор кодека : V_MPEG4/ISO/AVC
Продолжительность : 1 ч. 39 м.
Битрейт : 5664 Кбит/сек
Ширина : 1280 пикс.
Высота : 720 пикс.
Соотношение сторон : 16:9
Частота кадров : 25,000 кадр/сек
Цветовое пространство : YUV
Подвыборка цветности : 4:2:0
Битовая глубина : 8 бит
Тип развёртки : Прогрессивная
Бит/(Пиксели*Кадры) : 0.246
Размер потока : 3,83 Гбайт (83%)
Заголовок : By PFa
Библиотека кодирования : x264 core 104 r1683 62997d6
Настройки программы : cabac=1 / ref=5 / deblock=1:0:0 / analyse=0x3:0x133 / me=umh / subme=8 / psy=1 / psy_rd=1.00:0.00 / mixed_ref=1 / me_range=16 / chroma_me=1 / trellis=1 / 8x8dct=1 / cqm=0 / deadzone=21,11 / fast_pskip=0 / chroma_qp_offset=-2 / threads=3 / sliced_threads=0 / nr=0 / decimate=1 / interlaced=0 / constrained_intra=0 / bframes=3 / b_pyramid=2 / b_adapt=1 / b_bias=0 / direct=1 / weightb=1 / open_gop=0 / weightp=2 / keyint=250 / keyint_min=25 / scenecut=40 / intra_refresh=0 / rc_lookahead=40 / rc=2pass / mbtree=1 / bitrate=5664 / ratetol=1.0 / qcomp=0.60 / qpmin=10 / qpmax=51 / qpstep=4 / cplxblur=20.0 / qblur=0.5 / ip_ratio=1.40 / aq=1:1.00
Язык : English
Аудио #1
Идентификатор : 2
Формат : AC-3
Формат/Информация : Audio Coding 3
Расширение режима : CM (complete main)
Идентификатор кодека : A_AC3
Продолжительность : 1 ч. 39 м.
Вид битрейта : Постоянный
Битрейт : 192 Кбит/сек
Каналы : 2 канала
Расположение каналов : Front: L R
Частота : 48,0 КГц
Битовая глубина : 16 бит
Метод сжатия : С потерями
Размер потока : 136 Мбайт (3%)
Заголовок : MVO Hallmark Russia 2.0 @ 192 Kbps
Язык : Russian
Аудио #2
Идентификатор : 3
Формат : AC-3
Формат/Информация : Audio Coding 3
Расширение режима : CM (complete main)
Идентификатор кодека : A_AC3
Продолжительность : 1 ч. 39 м.
Вид битрейта : Постоянный
Битрейт : 192 Кбит/сек
Каналы : 2 канала
Расположение каналов : Front: L R
Частота : 48,0 КГц
Битовая глубина : 16 бит
Метод сжатия : С потерями
Размер потока : 136 Мбайт (3%)
Заголовок : MVO Lexicon / TVC Russia 2.0 @ 192 Kbps
Язык : Russian
Аудио #3
Идентификатор : 4
Формат : AC-3
Формат/Информация : Audio Coding 3
Расширение режима : CM (complete main)
Идентификатор кодека : A_AC3
Продолжительность : 1 ч. 39 м.
Вид битрейта : Постоянный
Битрейт : 640 Кбит/сек
Каналы : 2 канала
Расположение каналов : Front: L R
Частота : 48,0 КГц
Битовая глубина : 16 бит
Метод сжатия : С потерями
Размер потока : 454 Мбайт (10%)
Заголовок : Original 2.0 @ 640 Kbps
Язык : English

3-й сезон

Полное имя : F:\Сериал\война фойла\Foyle's War Series 3 BluRay 720p\Foyle's.War.S03E01.The.French.Drop.BluRay.720p.Rus.Eng.mkv
Формат : Matroska
Версия формата : Version 2
Размер файла : 4,50 Гбайт
Продолжительность : 1 ч. 33 м.
Общий поток : 6899 Кбит/сек
Дата кодирования : UTC 2012-04-27 13:24:34
Программа кодирования : mkvmerge v5.3.0 ('I could have danced') built on Feb 11 2012 16:21:29
Библиотека кодирования : libebml v1.2.2 + libmatroska v1.3.0
Видео
Идентификатор : 1
Формат : AVC
Формат/Информация : Advanced Video Codec
Профиль формата : [url=mailto:High@L4.1]High@L4.1[/url]
Параметр CABAC формата : Да
Параметр ReFrames формата : 5 кадров
Параметры GOP формата : M=4, N=25
Идентификатор кодека : V_MPEG4/ISO/AVC
Продолжительность : 1 ч. 33 м.
Битрейт : 5197 Кбит/сек
Ширина : 1280 пикс.
Высота : 720 пикс.
Соотношение сторон : 16:9
Частота кадров : 25,000 кадр/сек
Цветовое пространство : YUV
Подвыборка цветности : 4:2:0
Битовая глубина : 8 бит
Тип развёртки : Прогрессивная
Бит/(Пиксели*Кадры) : 0.226
Размер потока : 3,30 Гбайт (73%)
Заголовок : By PFa/aAF from [url=mailto:Peremann@www.thebox.bz]Peremann@www.thebox.bz[/url]
Библиотека кодирования : x264 core 105 r1724 b02df7b
Настройки программы : cabac=1 / ref=5 / deblock=1:0:0 / analyse=0x3:0x133 / me=umh / subme=8 / psy=1 / psy_rd=1.00:0.00 / mixed_ref=1 / me_range=16 / chroma_me=1 / trellis=1 / 8x8dct=1 / cqm=0 / deadzone=21,11 / fast_pskip=0 / chroma_qp_offset=-2 / threads=6 / sliced_threads=0 / nr=0 / decimate=1 / interlaced=0 / constrained_intra=0 / bframes=3 / b_pyramid=2 / b_adapt=1 / b_bias=0 / direct=1 / weightb=1 / open_gop=0 / weightp=2 / keyint=250 / keyint_min=25 / scenecut=40 / intra_refresh=0 / rc_lookahead=40 / rc=2pass / mbtree=1 / bitrate=5197 / ratetol=1.0 / qcomp=0.60 / qpmin=10 / qpmax=51 / qpstep=4 / cplxblur=20.0 / qblur=0.5 / ip_ratio=1.40 / aq=1:1.00
Язык : English
Аудио #1
Идентификатор : 2
Формат : AC-3
Формат/Информация : Audio Coding 3
Расширение режима : CM (complete main)
Идентификатор кодека : A_AC3
Продолжительность : 1 ч. 33 м.
Вид битрейта : Постоянный
Битрейт : 192 Кбит/сек
Каналы : 2 канала
Расположение каналов : Front: L R
Частота : 48,0 КГц
Битовая глубина : 16 бит
Метод сжатия : С потерями
Размер потока : 128 Мбайт (3%)
Заголовок : Hallmark Russia 2.0 @ 192 Kbps
Язык : Russian
Аудио #2
Идентификатор : 3
Формат : DTS
Формат/Информация : Digital Theater Systems
Идентификатор кодека : A_DTS
Продолжительность : 1 ч. 33 м.
Вид битрейта : Постоянный
Битрейт : 1510 Кбит/сек
Каналы : 2 канала
Расположение каналов : Front: L R
Частота : 48,0 КГц
Битовая глубина : 16 бит
Метод сжатия : С потерями
Размер потока : 1007 Мбайт (22%)
Заголовок : Original DTS 2.0 @ 1510 Kbps
Язык : English

4-й сезон

Полное имя : F:\Сериал\война фойла\Foyle's War Series 4 BluRay 720p\Foyle's.War.S04E01.Invasion.BluRay.720p.Rus.Eng.mkv
Формат : Matroska
Версия формата : Version 2
Размер файла : 4,49 Гбайт
Продолжительность : 1 ч. 33 м.
Общий поток : 6874 Кбит/сек
Дата кодирования : UTC 2012-04-28 23:43:21
Программа кодирования : mkvmerge v5.3.0 ('I could have danced') built on Feb 11 2012 16:21:29
Библиотека кодирования : libebml v1.2.2 + libmatroska v1.3.0
Видео
Идентификатор : 1
Формат : AVC
Формат/Информация : Advanced Video Codec
Профиль формата : [url=mailto:High@L4.1]High@L4.1[/url]
Параметр CABAC формата : Да
Параметр ReFrames формата : 5 кадров
Параметры GOP формата : M=4, N=25
Идентификатор кодека : V_MPEG4/ISO/AVC
Продолжительность : 1 ч. 33 м.
Битрейт : 5171 Кбит/сек
Ширина : 1280 пикс.
Высота : 720 пикс.
Соотношение сторон : 16:9
Частота кадров : 25,000 кадр/сек
Цветовое пространство : YUV
Подвыборка цветности : 4:2:0
Битовая глубина : 8 бит
Тип развёртки : Прогрессивная
Бит/(Пиксели*Кадры) : 0.224
Размер потока : 3,29 Гбайт (73%)
Заголовок : By aAF from [url=mailto:beliem@www.thebox.bz]beliem@www.thebox.bz[/url]
Библиотека кодирования : x264 core 105 r1724 b02df7b
Настройки программы : cabac=1 / ref=5 / deblock=1:0:0 / analyse=0x3:0x133 / me=umh / subme=8 / psy=1 / psy_rd=1.00:0.00 / mixed_ref=1 / me_range=16 / chroma_me=1 / trellis=1 / 8x8dct=1 / cqm=0 / deadzone=21,11 / fast_pskip=0 / chroma_qp_offset=-2 / threads=6 / sliced_threads=0 / nr=0 / decimate=1 / interlaced=0 / constrained_intra=0 / bframes=3 / b_pyramid=2 / b_adapt=1 / b_bias=0 / direct=1 / weightb=1 / open_gop=0 / weightp=2 / keyint=250 / keyint_min=25 / scenecut=40 / intra_refresh=0 / rc_lookahead=40 / rc=2pass / mbtree=1 / bitrate=5171 / ratetol=1.0 / qcomp=0.60 / qpmin=10 / qpmax=51 / qpstep=4 / cplxblur=20.0 / qblur=0.5 / ip_ratio=1.40 / aq=1:1.00
Язык : English
Аудио #1
Идентификатор : 2
Формат : AC-3
Формат/Информация : Audio Coding 3
Расширение режима : CM (complete main)
Идентификатор кодека : A_AC3
Продолжительность : 1 ч. 33 м.
Вид битрейта : Постоянный
Битрейт : 192 Кбит/сек
Каналы : 2 канала
Расположение каналов : Front: L R
Частота : 48,0 КГц
Битовая глубина : 16 бит
Метод сжатия : С потерями
Размер потока : 128 Мбайт (3%)
Заголовок : Hallmark Russia 2.0 @ 192 Kbps
Язык : Russian
Аудио #2
Идентификатор : 3
Формат : DTS
Формат/Информация : Digital Theater Systems
Идентификатор кодека : A_DTS
Продолжительность : 1 ч. 33 м.
Вид битрейта : Постоянный
Битрейт : 1510 Кбит/сек
Каналы : 2 канала
Расположение каналов : Front: L R
Частота : 48,0 КГц
Битовая глубина : 16 бит
Метод сжатия : С потерями
Размер потока : 1010 Мбайт (22%)
Заголовок : Original DTS 2.0 @ 1 510 Kbps
Язык : English

5-й сезон

Полное имя : F:\Сериал\война фойла\Foyle's War Series 5 BluRay 720p\Foyle's.War.S05E01.Bleak.Midwinter.BluRay.720p.Rus.Eng.mkv
Формат : Matroska
Версия формата : Version 2
Размер файла : 4,50 Гбайт
Продолжительность : 1 ч. 33 м.
Общий поток : 6911 Кбит/сек
Дата кодирования : UTC 2012-04-30 14:36:01
Программа кодирования : mkvmerge v5.3.0 ('I could have danced') built on Feb 11 2012 16:21:29
Библиотека кодирования : libebml v1.2.2 + libmatroska v1.3.0
Видео
Идентификатор : 1
Формат : AVC
Формат/Информация : Advanced Video Codec
Профиль формата : [url=mailto:High@L4.1]High@L4.1[/url]
Параметр CABAC формата : Да
Параметр ReFrames формата : 5 кадров
Параметры GOP формата : M=4, N=25
Идентификатор кодека : V_MPEG4/ISO/AVC
Продолжительность : 1 ч. 33 м.
Битрейт : 5208 Кбит/сек
Ширина : 1280 пикс.
Высота : 720 пикс.
Соотношение сторон : 16:9
Частота кадров : 25,000 кадр/сек
Цветовое пространство : YUV
Подвыборка цветности : 4:2:0
Битовая глубина : 8 бит
Тип развёртки : Прогрессивная
Бит/(Пиксели*Кадры) : 0.226
Размер потока : 3,30 Гбайт (73%)
Заголовок : By aAF from [url=mailto:beliem@www.thebox.bz]beliem@www.thebox.bz[/url]
Библиотека кодирования : x264 core 105 r1732 2b04482
Настройки программы : cabac=1 / ref=5 / deblock=1:0:0 / analyse=0x3:0x133 / me=umh / subme=8 / psy=1 / psy_rd=1.00:0.00 / mixed_ref=1 / me_range=16 / chroma_me=1 / trellis=1 / 8x8dct=1 / cqm=0 / deadzone=21,11 / fast_pskip=0 / chroma_qp_offset=-2 / threads=6 / sliced_threads=0 / nr=0 / decimate=1 / interlaced=0 / constrained_intra=0 / bframes=3 / b_pyramid=2 / b_adapt=1 / b_bias=0 / direct=1 / weightb=1 / open_gop=0 / weightp=2 / keyint=250 / keyint_min=25 / scenecut=40 / intra_refresh=0 / rc_lookahead=40 / rc=2pass / mbtree=1 / bitrate=5208 / ratetol=1.0 / qcomp=0.60 / qpmin=10 / qpmax=51 / qpstep=4 / cplxblur=20.0 / qblur=0.5 / ip_ratio=1.40 / aq=1:1.00
Язык : English
Аудио #1
Идентификатор : 2
Формат : AC-3
Формат/Информация : Audio Coding 3
Расширение режима : CM (complete main)
Идентификатор кодека : A_AC3
Продолжительность : 1 ч. 33 м.
Вид битрейта : Постоянный
Битрейт : 192 Кбит/сек
Каналы : 2 канала
Расположение каналов : Front: L R
Частота : 48,0 КГц
Битовая глубина : 16 бит
Метод сжатия : С потерями
Размер потока : 128 Мбайт (3%)
Заголовок : Hallmark Russia 2.0 @192 Kbps
Язык : Russian
Аудио #2
Идентификатор : 3
Формат : DTS
Формат/Информация : Digital Theater Systems
Идентификатор кодека : A_DTS
Продолжительность : 1 ч. 33 м.
Вид битрейта : Постоянный
Битрейт : 1510 Кбит/сек
Каналы : 2 канала
Расположение каналов : Front: L R
Частота : 48,0 КГц
Битовая глубина : 16 бит
Метод сжатия : С потерями
Размер потока : 1006 Мбайт (22%)
Заголовок : Original DTS 2.0 @ 1 510 Kbps
Язык : English

6-й сезон

Полное имя : F:\Сериал\война фойла\Foyle's War Series 6 BluRay 720p\Foyle's.War.S06E01.Plan.of.Attack.BluRay.720p.Rus.Eng.mkv
Формат : Matroska
Версия формата : Version 2
Размер файла : 4,49 Гбайт
Продолжительность : 1 ч. 33 м.
Общий поток : 6915 Кбит/сек
Дата кодирования : UTC 2012-05-01 13:42:31
Программа кодирования : mkvmerge v5.3.0 ('I could have danced') built on Feb 11 2012 16:21:29
Библиотека кодирования : libebml v1.2.2 + libmatroska v1.3.0
Видео
Идентификатор : 1
Формат : AVC
Формат/Информация : Advanced Video Codec
Профиль формата : [url=mailto:High@L4.1]High@L4.1[/url]
Параметр CABAC формата : Да
Параметр ReFrames формата : 5 кадров
Параметры GOP формата : M=4, N=24
Идентификатор кодека : V_MPEG4/ISO/AVC
Продолжительность : 1 ч. 33 м.
Битрейт : 5212 Кбит/сек
Ширина : 1280 пикс.
Высота : 720 пикс.
Соотношение сторон : 16:9
Частота кадров : 25,000 кадр/сек
Цветовое пространство : YUV
Подвыборка цветности : 4:2:0
Битовая глубина : 8 бит
Тип развёртки : Прогрессивная
Бит/(Пиксели*Кадры) : 0.226
Размер потока : 3,30 Гбайт (73%)
Заголовок : By aAF from [url=mailto:beliem@www.thebox.bz]beliem@www.thebox.bz[/url]
Библиотека кодирования : x264 core 105 r1732 2b04482
Настройки программы : cabac=1 / ref=5 / deblock=1:0:0 / analyse=0x3:0x133 / me=umh / subme=8 / psy=1 / psy_rd=1.00:0.00 / mixed_ref=1 / me_range=16 / chroma_me=1 / trellis=1 / 8x8dct=1 / cqm=0 / deadzone=21,11 / fast_pskip=0 / chroma_qp_offset=-2 / threads=6 / sliced_threads=0 / nr=0 / decimate=1 / interlaced=0 / constrained_intra=0 / bframes=3 / b_pyramid=2 / b_adapt=1 / b_bias=0 / direct=1 / weightb=1 / open_gop=0 / weightp=2 / keyint=250 / keyint_min=25 / scenecut=40 / intra_refresh=0 / rc_lookahead=40 / rc=2pass / mbtree=1 / bitrate=5212 / ratetol=1.0 / qcomp=0.60 / qpmin=10 / qpmax=51 / qpstep=4 / cplxblur=20.0 / qblur=0.5 / ip_ratio=1.40 / aq=1:1.00
Язык : English
Аудио #1
Идентификатор : 2
Формат : AC-3
Формат/Информация : Audio Coding 3
Расширение режима : CM (complete main)
Идентификатор кодека : A_AC3
Продолжительность : 1 ч. 33 м.
Вид битрейта : Постоянный
Битрейт : 192 Кбит/сек
Каналы : 2 канала
Расположение каналов : Front: L R
Частота : 48,0 КГц
Битовая глубина : 16 бит
Метод сжатия : С потерями
Размер потока : 128 Мбайт (3%)
Заголовок : Hallmark Russia 2.0 @ 192 Kbps
Язык : Russian
Аудио #2
Идентификатор : 3
Формат : DTS
Формат/Информация : Digital Theater Systems
Идентификатор кодека : A_DTS
Продолжительность : 1 ч. 33 м.
Вид битрейта : Постоянный
Битрейт : 1510 Кбит/сек
Каналы : 2 канала
Расположение каналов : Front: L R
Частота : 48,0 КГц
Битовая глубина : 24 бит
Метод сжатия : С потерями
Размер потока : 1005 Мбайт (22%)
Заголовок : Original DTS 2.0 @ 1 510 Kbps
Язык : English

7-й сезон

Полное имя : F:\Сериал\война фойла\Foyle's War Series 7 HDTV 720p\Foyle's.War.S07E01.The.Russian.House.HDTV.720p.Rus.Eng.mkv
Формат : Matroska
Версия формата : Version 2
Размер файла : 2,28 Гбайт
Продолжительность : 1 ч. 33 м.
Общий поток : 3506 Кбит/сек
Дата кодирования : UTC 2012-05-03 15:34:58
Программа кодирования : mkvmerge v5.3.0 ('I could have danced') built on Feb 11 2012 16:21:29
Библиотека кодирования : libebml v1.2.2 + libmatroska v1.3.0
Видео
Идентификатор : 1
Формат : AVC
Формат/Информация : Advanced Video Codec
Профиль формата : [url=mailto:High@L4.1]High@L4.1[/url]
Параметр CABAC формата : Да
Параметр ReFrames формата : 3 кадра
Идентификатор кодека : V_MPEG4/ISO/AVC
Продолжительность : 1 ч. 33 м.
Вид битрейта : Переменный
Битрейт : 3146 Кбит/сек
Максимальный битрейт : 40,0 Мбит/сек
Ширина : 1280 пикс.
Высота : 720 пикс.
Соотношение сторон : 16:9
Частота кадров : 25,000 кадр/сек
Цветовое пространство : YUV
Подвыборка цветности : 4:2:0
Битовая глубина : 8 бит
Тип развёртки : Прогрессивная
Бит/(Пиксели*Кадры) : 0.137
Размер потока : 1,99 Гбайт (87%)
Заголовок : By [url=mailto:Hannibal@www.thebox.bz]Hannibal@www.thebox.bz[/url]
Библиотека кодирования : x264 core 80 r1376M 3feaec2
Настройки программы : cabac=1 / ref=4 / deblock=1:0:0 / analyse=0x3:0x113 / me=hex / subme=7 / psy=1 / psy_rd=1.0:0.0 / mixed_ref=1 / me_range=16 / chroma_me=1 / trellis=0 / 8x8dct=1 / cqm=0 / deadzone=21,11 / fast_pskip=1 / chroma_qp_offset=-2 / threads=6 / sliced_threads=0 / slices=4 / nr=0 / decimate=1 / mbaff=0 / constrained_intra=0 / bframes=3 / b_pyramid=1 / b_adapt=1 / b_bias=0 / direct=1 / wpredb=1 / wpredp=2 / keyint=24 / keyint_min=2 / scenecut=40 / rc_lookahead=24 / rc=cbr / mbtree=1 / bitrate=3146 / ratetol=1.0 / qcomp=0.60 / qpmin=10 / qpmax=51 / qpstep=4 / vbv_maxrate=40000 / vbv_bufsize=30000 / ip_ratio=1.40 / aq=1:1.00
Язык : English
Аудио #1
Идентификатор : 2
Формат : AC-3
Формат/Информация : Audio Coding 3
Расширение режима : CM (complete main)
Идентификатор кодека : A_AC3
Продолжительность : 1 ч. 33 м.
Вид битрейта : Постоянный
Битрейт : 192 Кбит/сек
Каналы : 2 канала
Расположение каналов : Front: L R
Частота : 48,0 КГц
Битовая глубина : 16 бит
Метод сжатия : С потерями
Размер потока : 128 Мбайт (5%)
Заголовок : Hallmark Russia 2.0 @ 192 Kbps
Язык : Russian
Аудио #2
Идентификатор : 3
Формат : AC-3
Формат/Информация : Audio Coding 3
Расширение режима : CM (complete main)
Идентификатор кодека : A_AC3
Продолжительность : 1 ч. 33 м.
Вид битрейта : Постоянный
Битрейт : 192 Кбит/сек
Каналы : 2 канала
Расположение каналов : Front: L R
Частота : 48,0 КГц
Битовая глубина : 16 бит
Метод сжатия : С потерями
Размер потока : 128 Мбайт (5%)
Заголовок : Original 2.0 @ 192 Kbps
Язык : English
             

Подробное описание по сезонам

1-й сезон

Сезон 1 / Season 1
s01e01 The German Woman - Немка
s01e02 The White Feather - Отель "Белое перо"
s01e03 A Lesson in Murder - Урок убийства
s01e04 Eagle Day - День Орла
Продолжительность: 01:37:30 х 4
Перевод 1: Профессиональный многоголосый закадровый Hallmark Russia
Перевод 2: Профессиональный многоголосый закадровый Студия Лексикон по заказу ТВЦ

Качество: BDRip 720p
Формат: MKV
Видео кодек: AVC
Аудио кодек: AC3
Видео: AVC, 1280x720, 25 fps, 5 770 Kbps, 0.250bps
Аудио 1 RUS: AC3, 48 KHz, 2 ch, 192 Kbps Hallmark Russia (remastered)
Аудио 2 RUS: AC3, 48 KHz, 2 ch, 192 Kbps Студия Лексикон по заказу ТВЦ
Аудио 3 ENG: AC3, 48 KHz, 2 ch, 640 Kbps
       
       

2-й сезон

Сезон 2 / Season 2
s02e01 Fifty Ships - Пятьдесят кораблей
s02e02 Among the Few - Среди избранных
s02e03 War Games - Военные игры
s02e04 The Funk Hole - Тихая гавань
Продолжительность: 01:39:00 х 4
Перевод 1: Профессиональный многоголосый закадровый Hallmark Russia
Перевод 2: Профессиональный многоголосый закадровый Студия Лексикон по заказу ТВЦ

Качество: BDRip 720p
Формат: MKV
Видео кодек: AVC
Аудио кодек: AC3
Видео: AVC, 1280x720, 25 fps, 5 680 Kbps, 0.246bps
Аудио 1 RUS: AC3, 48 KHz, 2 ch, 192 Kbps Hallmark Russia (remastered)
Аудио 2 RUS: AC3, 48 KHz, 2 ch, 192 Kbps Студия Лексикон по заказу ТВЦ
Аудио 3 ENG: AC3, 48 KHz, 2 ch, 640 Kbps
       
       

3-й сезон

Сезон 3 / Season 3
s03e01 The French Drop - Французский бросок
s03e02 Enemy Fire - Вражеский огонь
s03e03 They Fought in the Fields - Они сражались в полях
s03e04 A War of Nerves - Психическая атака
Продолжительность: 01:33:00 х 4
Перевод 1: Профессиональный многоголосый закадровый Hallmark Russia
Качество: BDRip 720p
Формат: MKV
Видео кодек: AVC
Аудио кодек: AC3
Видео: AVC, 1280x720, 25 fps, 5 200 Kbps, 0.226bps
Аудио 1 RUS: AC3, 48 KHz, 2 ch, 192 Kbps Hallmark Russia
Аудио 2 ENG: A_DTS, 48 KHz, 2 ch, 1 510 Kbps
       
       

4-й сезон

Сезон 4 / Season 4
s04e01 Invasion - Вторжение
s04e02 Bad Blood - Плохая кровь
Продолжительность: 01:33:30 х 2
Перевод 1: Профессиональный многоголосый закадровый Hallmark Russia
Качество: BDRip 720p
Формат: MKV
Видео кодек: AVC
Аудио кодек: AC3
Видео: AVC, 1280x720, 25 fps, 5 170 Kbps, 0.224bps
Аудио 1 RUS: AC3, 48 KHz, 2 ch, 192 Kbps Hallmark Russia
Аудио 2 ENG: A_DTS, 48 KHz, 2 ch, 1 510 Kbps
       
       

5-й сезон

Сезон 5 / Season 5
s05e01 Bleak Midwinter - Суровая зима
s05e02 Casualties of War - Жертвы войны
Продолжительность: 01:33:10 х 2
Перевод 1: Профессиональный многоголосый закадровый Hallmark Russia
Качество: BDRip 720p
Формат: MKV
Видео кодек: AVC
Аудио кодек: AC3
Видео: AVC, 1280x720, 25 fps, 5 200 Kbps, 0.226bps
Аудио 1 RUS: AC3, 48 KHz, 2 ch, 192 Kbps Hallmark Russia
Аудио 2 ENG: A_DTS, 48 KHz, 2 ch, 1 510 Kbps
       
       

6-й сезон

Сезон 6 / Season 6
s06e01 Plan of Attack - План атаки
s06e02 Broken Souls - Сломленные души
s06e03 All Clear - Всё ясно
Продолжительность: 01:32:00 х 3
Перевод 1: Профессиональный многоголосый закадровый Hallmark Russia
Качество: BDRip 720p
Формат: MKV
Видео кодек: AVC
Аудио кодек: AC3
Видео: AVC, 1280x720, 25 fps, 5 250 Kbps, 0.226bps
Аудио 1 RUS: AC3, 48 KHz, 2 ch, 192 Kbps Hallmark Russia
Аудио 2 ENG: A_DTS, 48 KHz, 2 ch, 1 510 Kbps
       
       

7-й сезон

Сезон 7/ Season 7
s07e01 The Russian House - Русский Дом
s07e02 Killing Time - Момент убийства
s07e03 The Hide - Тайник
Продолжительность: 01:32:00 х 3
Перевод 1: Профессиональный многоголосый закадровый Hallmark Russia
Русские субтитры: есть, на фрагменты без озвучки во второй серии
Перевод субтитров: TTor
Качество: HDTVRip 720p
Формат: MKV
Видео кодек: AVC
Аудио кодек: AC3
Видео: AVC, 1280x720, 25fps, 3 140 - 3 470 Kbps, 0,137-0,151 bpp
Аудио 1 RUS: A_AC3, 48 KHz, 2 ch, 192 Kbps Hallmark Russia
Аудио 2 ENG: A_AC3, 48 KHz, 2 ch, 192 Kbps
Субтитры RUS: S_TEXT/UTF8 только для фрагментов без озвучки (субтитры и перевод TTor)
       
       
Сэмпл: 1-й сезон, 2-й сезон, 3-й сезон, 4-й сезон, 5-й сезон, 6-й сезон, 7-й сезон
Вне форума [Профиль] [ЛС]
Похожие темы
Форум Тема Автор Торрент Отв. Посл. сообщение
./templates/default/images/folder_dl.gif Фантастика, фэнтези, ужасы, мистика Владислав Морозов | Атомные танкисты. Ядерная война СССР против НАТО (2016) [FB2] moralis
1 | 0

0 | 1168

16

2016-02-13 22:34
moralis Последнее
./templates/default/images/folder_dl.gif Фантастика, фэнтези, ужасы, мистика Олег Дивов | Война миров (2016) [FB2] moralis
1 | 0

0 | 338

4

2016-02-25 21:41
moralis Последнее
./templates/default/images/folder_dl.gif Новинки (CamRip|TS) Мстители: Война бесконечности / Avengers: Infinity War (Энтони Руссо, Джо Руссо) [2018 г., фантастика, фэнтези, боевик, приключения, TS] DUB Theseus
1 | 0

0 | 219

9

2018-05-22 14:03
Theseus Последнее
Показать сообщения:    
Ответить на тему

Текущее время: Сегодня 22:55

Часовой пояс: GMT + 3



Вы не можете начинать темы
Вы не можете отвечать на сообщения
Вы не можете редактировать свои сообщения
Вы не можете удалять свои сообщения
Вы не можете голосовать в опросах
Вы не можете прикреплять файлы к сообщениям
Вы не можете скачивать файлы