Сегодня идет свободное скачивание без начисления Download

Касл / Castle (2012) WEB-DL (1080p) [сезон 5, серии 01-22 из 23] (Lostfilm) (обновляемая)

Ответить на тему
 
Автор
Сообщение

UndegraundMen ®

Стаж: 5 лет 8 месяцев

Сообщений: 25860

Торрент-статистика

Пост 07-Май-2013 00:00

[Цитировать]

Касл / Castle (2012) WEB-DL (1080p) [сезон 5, серии 01-22 из 23] (Lostfilm) (обновляемая)- Русское название: Касл
Оригинальное название: Castle
Год выпуска: 2012
Жанр: Детектив, Комедия, Драма
Перевод: Многоголосый закадровый, профессиональный
Озвучка / Автор перевода: (Lostfilm)
Вид субтитров: Вшитые отключаемые
Язык субтитров: Английские

Режиссер: Роб Боумен, Джон Терлески, Брайан Спайсер
Актеры: Натан Филлион, Стана Катич, Сьюзэн Салливан, Молли С. Куинн, Джон Уэртас, Тамала Джонс, Шимус Девер, Рубен Сантьяго-Хадсон, Пенни Джонсон, Ари Гросс
Описание фильма:
Ричард Касл - успешный писатель детективного жанра, который в последней книге убил своего главного героя. Но кажется, что одному из почитателей его таланта книги понравились слегка чересчур - в городе появляется подражатель, совершающий преступления, с убийственной точностью копируя способы, которыми Касл убивал в своих произведениях. И вот наш изнывающий от скуки писатель был вызван в отдел убийств Нью-йоркской полиции, чтобы помочь найти убийцу.
Продолжительность: 22 х ~ 00:43
Качество видео: WEB-DL (1080p)
Сэмпл: Скачать
Видеокодек: MPEG-4 AVC/H.264
Битрейт видео: ~5000 kbps avg
Размер кадра: 1920x1080 at 23.976 fps
Аудиокодек: AC3 5.1
Битрейт аудио:
Аудио#1: Russian: 48 kHz, AC3, 3/2 (L,C,R,l,r) + LFE ch, ~384.00 kbps avg |Многоголосый закадровый, LostFilm.TV|
Аудио#2: English: 48 kHz, AC3, 3/2 (L,C,R,l,r) + LFE ch, ~384.00 kbps avg
Раздача путем добавления новых серий.
Добавил 22 серию. Перекачайте торрент-файл

MI

General
Unique ID : 221300083260160585865294048964780038366 (0xA67CD88018F7A8BCA606900710CD18DE)
Complete name : G:\Castle.S05.1080p.WEB-DL.Rus.Eng.HDCLUB\Castle.S05E01.1080p.WEB-DL.Rus.Eng.HDCLUB.mkv
Format : Matroska
Format version : Version 2
File size : 1.73 GiB
Duration : 43mn 12s
Overall bit rate : 5 741 Kbps
Movie name : Castle [Season 5] (2012)
Encoded date : UTC 2012-10-03 12:45:38
Writing application : mkvmerge v5.8.0 ('No Sleep / Pillow') built on Sep 2 2012 15:37:04
Writing library : libebml v1.2.3 + libmatroska v1.3.0
Video
ID : 1
Format : AVC
Format/Info : Advanced Video Codec
Format profile : [url=mailto:High@L4.0]High@L4.0[/url]
Format settings, CABAC : Yes
Format settings, ReFrames : 4 frames
Codec ID : V_MPEG4/ISO/AVC
Duration : 43mn 13s
Bit rate : 4 859 Kbps
Width : 1 920 pixels
Height : 1 080 pixels
Display aspect ratio : 16:9
Frame rate mode : Constant
Frame rate : 23.976 fps
Color space : YUV
Chroma subsampling : 4:2:0
Bit depth : 8 bits
Scan type : Progressive
Bits/(Pixel*Frame) : 0.098
Stream size : 1.47 GiB (85%)
Title : Season 5, Episode 01: After the Storm / После бури
Language : English
Default : Yes
Forced : No
Color primaries : BT.709
Transfer characteristics : BT.709
Matrix coefficients : BT.709
Audio #1
ID : 2
Format : AC-3
Format/Info : Audio Coding 3
Mode extension : CM (complete main)
Format settings, Endianness : Big
Codec ID : A_AC3
Duration : 43mn 12s
Bit rate mode : Constant
Bit rate : 384 Kbps
Channel(s) : 6 channels
Channel positions : Front: L C R, Side: L R, LFE
Sampling rate : 48.0 KHz
Bit depth : 16 bits
Compression mode : Lossy
Stream size : 119 MiB (7%)
Title : DD 5.1 @ 384 kbps @ LostFilm
Language : Russian
Default : Yes
Forced : No
Audio #2
ID : 3
Format : AC-3
Format/Info : Audio Coding 3
Mode extension : CM (complete main)
Format settings, Endianness : Big
Codec ID : A_AC3
Duration : 43mn 12s
Bit rate mode : Constant
Bit rate : 384 Kbps
Channel(s) : 6 channels
Channel positions : Front: L C R, Side: L R, LFE
Sampling rate : 48.0 KHz
Bit depth : 16 bits
Compression mode : Lossy
Stream size : 119 MiB (7%)
Title : DD 5.1 @ 384 kbps
Language : English
Default : No
Forced : No
Text
ID : 4
Format : UTF-8
Codec ID : S_TEXT/UTF8
Codec ID/Info : UTF-8 Plain Text
Title : English @ SRT
Language : English
Default : No
Forced : No

список серий

Season 5, Episodes 01-22
01: After the Storm / После бури
02: Cloudy with a Chance of Murder / Облачно, возможно убийство
03: Secret's Safe with Me / Я сохраню наш секрет
04: Murder He Wrote / Он написал убийство
05: Probable Cause / Возможная причина
06: The Final Frontier / Последний рубеж
07: Swan Song / Лебединая песня
08: After Hours / После работы
09: Secret Santa / Секретный Санта
10: Significant Others / Близкие люди
11: Under the Influence / Под влиянием
12: Death Gone Crazy / Отвязная смерть
13: Recoil / Отдача
14: Reality Star Struck / Звёздная болезнь
15: Target / Цель
16: Hunt / Охота
17: Scared to Death / Напуганные до смерти
18: The Wild Rover / Разбойник
19: The Lives of Others / Жизнь других
20: The Fast and the Furriest / Быстрый и мохнатый
21: The Squab and the Quail / Голубь и перепёлка
22: Still / Замри

интересные факты

• Декорациии квартиры Ричарда Касла использовались для квартиры главного героя в сериале «Лунный свет» («Moonlight»).
• В шестой серии второго сезона, Касл одевает костюм космического ковбоя, это костюм Малкольма Рейнолдса из сериала «Светлячок», которого играл Натан Филлион.

как добавить серию в текущую раздачу

При добавлении очередной серии создаётся новый торрент.
Чтобы начать докачку новой серии, необходимо сделать следующее:
1. Остановить скачивание;
2. Удалить старый торрент у себя из торрент-клиента (старые серии с диска удалять не надо!);
3. Скачать новый торрент и запустить его у себя в клиенте вместо старого, при этом указать клиенту путь в прежнюю папку, куда и будет закачиваться новая серия.
При этом, клиент произведет хеширование (проверку) файлов в прежней папке и будет докачивать только те серии, которых у вас ещё нет. Старые серии при этом не удаляются, а продолжают раздаваться.
Eсли вы уже удалили старые серии, то предотвратить повторную закачку старых серий можно, отжав галочку в соответствующих местах при запуске нового торрента.

расширение Chrome для мониторинга обновления релизов

Если у вас браузер Crome, и вы не хотите постоянно заходить на страницу релиза - проверять: а не появилась ли новая серия? - можно поставить расширение, которое автоматически мониторит обновления помеченных релизов на основных русскоязычных торрент-трекерах (nnm-club в том числе)
Брать здесь:
U.ssr torrents monitor
В настройках все по-русски и очевидно. Если возникнут вопросы - пишите, помогу в меру сил
Скриншоты:


Время раздачи: 24/7
Вне форума [Профиль] [ЛС]
Показать сообщения:    
Ответить на тему

Текущее время: Сегодня 14:36

Часовой пояс: GMT + 3



Вы не можете начинать темы
Вы не можете отвечать на сообщения
Вы не можете редактировать свои сообщения
Вы не можете удалять свои сообщения
Вы не можете голосовать в опросах
Вы не можете прикреплять файлы к сообщениям
Вы не можете скачивать файлы