Сегодня идет свободное скачивание без начисления Download

Следствие по телу / Body of Proof (Сезон 3, серии 1-9 из 13) (2013) HDTVRip [ZytruS & Albion Studio] (обновляемая)

Ответить на тему
 
Автор
Сообщение

UndegraundMen ®

Стаж: 5 лет 4 месяца

Сообщений: 25870

Торрент-статистика

Пост 06-Май-2013 00:08

[Цитировать]

Следствие по телу / Body of Proof (сезон 3, серии 1-9 из 13) (2013) HDTVRip- Русское название: Следствие по телу
Оригинальное название: Body of Proof
Год выпуска: 2013
Жанр: Детектив, Криминал, Драма
Перевод: Многоголосый закадровый, любительский
Язык: русский
Озвучка / Автор перевода: ZytruS & Albion Studio
Вид субтитров: Отсутствуют-Релиз группа: ZytruS
Перевод на русский язык: notabenoid
Редакция перевода: bliss_point
Роли озвучивали: archi27, bliss_point, Jefferson-T, reiser, kostya, Yoda, bigych, Knopa1408, gapon, LooDeniz
Обработка звука: RAMA (1-2 серии), sergeyffff (3-9 серия)
Работа с видео: RAMA-
Дата мировой премьеры: 25.01.2011
Дата российской премьеры: 07.02.2011
Режиссер: Майкл Уоткинс, Ральф Хемекер, Дэвил вон Анкен и др.
Актеры: Дана Дилейни, Марк Вэлли, Джери Райан, Джеффри Аренд, Уинделл Мидлбрукс, Элайес Габел и др.-Описание фильма:
Сериал рассказывает уникальную историю судебного медэксперта доктора Меган Хант. Гениальный нейрохирург в прошлом, волей обстоятельств она становится ведущим криминалистом. Доктор Хант должна проводить все время в лаборатории. Но вместо этого врач активно включается в паутину расследований и становится настоящим сыщиком от медицины. В то время как полиция пытается получить информацию от живых, доктор Хант ищет разгадки в телах мертвых.-Продолжительность: 00:43:00
Качество видео: HDTVRip
Сэмпл: Скачать
Видеокодек: Xvid
Битрейт видео: ~1065 kbps
Размер кадра: 720x400
Аудиокодек: MP3
Битрейт аудио: 128 kbps--Скриншоты:
       
-Дополнительная информация:

MediaInfo

General
Complete name : Body.of.Proof.s03e01.hdtvrip.rus.zytrus.avi
Format : AVI
Format/Info : Audio Video Interleave
Format profile : OpenDML
File size : 351 MiB
Duration : 43mn 0s
Overall bit rate : 1 140 Kbps
Writing application : AVI-Mux GUI 1.17.8.3, Feb 16 201019:42:50
Video
ID : 0
Format : MPEG-4 Visual
Format profile : AdvancedSimple@L5
Format settings, BVOP : Yes
Format settings, QPel : No
Format settings, GMC : No warppoints
Format settings, Matrix : Default (H.263)
Codec ID : XVID
Codec ID/Hint : XviD
Duration : 43mn 0s
Bit rate : 1 003 Kbps
Width : 720 pixels
Height : 400 pixels
Display aspect ratio : 16:9
Frame rate : 25.000 fps
Resolution : 24 bits
Colorimetry : 4:2:0
Scan type : Progressive
Bits/(Pixel*Frame) : 0.139
Stream size : 308 MiB (88%)
Writing library : XviD 73
Audio
ID : 1
Format : MPEG Audio
Format version : Version 1
Format profile : Layer 3
Codec ID : 55
Codec ID/Hint : MP3
Duration : 43mn 0s
Bit rate mode : Constant
Bit rate : 128 Kbps
Channel(s) : 2 channels
Sampling rate : 48.0 KHz
Resolution : 16 bits
Stream size : 39.4 MiB (11%)
Alignment : Aligned on interleaves
Interleave, duration : 24 ms (0.60 video frame)
Interleave, preload duration : 192 ms
Title : Body.of.Proof.s03e01.hdtvrip.rus.zytrus_MP3 Audio_48kHz 128 Kbps

Список серий

01. Похищенные: часть 1 / Abducted: part I
02. Похищенные: часть 2 / Abducted: part II
03. Заблудшие души / Lost Souls
04. С точки зрения мафии / Mob Mentality
05. Око за око / Eye for an Eye
06. Падший ангел / Fallen Angel
07. Кожа да кости / Skin and Bones
08. Под подозрением / Doubting Tommy
09. Похищение / Disappearing Act

Внимание! Раздача ведётся путём добавления новых серий!

Раздача ведётся путём добавления новых серий; при каждом добавлении создаётся новый торрент. Чтобы начать докачку новой серии, пользователям необходимо сделать следующее:
(1) остановить скачивание,
(2) удалить старый торрент у себя из клиента (старые серии удалять не надо),
(3) скачать новый торрент и запустить его у себя в клиенте вместо старого, при этом указать клиенту путь в старую папку куда и должно происходить скачивание новых серий.
Ваш клиент при этом должен произвести хеширование (проверку) старой папки (если не производит сам - помогите ему сделать это), и будет докачивать только те серии которых у вас ещё нет. Старые серии при этом не удаляются, а продолжают раздаваться!
Eсли вы уже удалили старые серии, то предотвратить повторную закачку старых серий можно, отжав галочку в соответствующих местах при запуске нового торрента. По возможности, желательно не удалять старые серии как можно дольше чтобы релизёр не столько продолжал раздавать старые серии, а смог сконцентрироваться на новых.
-Обновляемая раздача!
Добавлена 9-я серия!
-Время раздачи: c 9:00 до 0:00
Вне форума [Профиль] [ЛС]
Показать сообщения:    
Ответить на тему

Текущее время: Сегодня 08:32

Часовой пояс: GMT + 3



Вы не можете начинать темы
Вы не можете отвечать на сообщения
Вы не можете редактировать свои сообщения
Вы не можете удалять свои сообщения
Вы не можете голосовать в опросах
Вы не можете прикреплять файлы к сообщениям
Вы не можете скачивать файлы