Сегодня идет свободное скачивание без начисления Download

Библия / The Bible (серии 01,03-07 из 10) [2013] BDRip [1080p] (BaibaKo) (обновляемая)

Ответить на тему
 
Автор
Сообщение

UndegraundMen ®

Стаж: 5 лет 3 месяца

Сообщений: 25871

Торрент-статистика

Пост 06-Май-2013 00:08

[Цитировать]

Библия / The Bible (серии 01,03-07 из 10) [2013] BDRip [1080p] (BaibaKo) (обновляемая)- Русское название: Библия
Оригинальное название: The Bible
Год выпуска: 2013
Жанр: Драма
Страна: США
Перевод: Многоголосый закадровый, профессиональный-Baibako
Озвучка / Автор перевода: Лира Грим, Ольга Мотрич, Сергей Корчак и Виталий Ткаченко

Релиз группа:

Режиссер: Криспин Рис, Тони Митчелл, Кристофер Спенсер
Актеры: Диого Моргадо, Дауд Шах, Пол Брайтвелл, Рома Дауни, Грег Хикс, Себастьян Кнапп, Эмбер Роуз Рева, Адриан Шиллер, Эндрю Брук, Луиз Деламер
Описание фильма:
Самая масштабная экранизация библейских сюжетов, как утверждают авторы, снята в духе современных исторических сериалов c добавлением к живым сценам - компьютерной графики. Истории о Ноевом ковчеге, исходе из Египта под предводительством Моисея, рождении, смерти и воскресении Иисуса. Сериал состоит из 10 ключевых повествований. Начиная от книги Бытие и заканчивая книгой Откровение. Воссоздать и снять истории Ветхого и Нового заветов решился 43-летний британский продюсер Марк Барнетт с супругой. Съемки стоимостью в 22 миллиона долларов прошли на Ближнем Востоке и собрали актеров со всего мира (Самсон из африканской диаспоры, Давид из Ирландии, Иисус из Португалии, и т.д.). В качестве консультантов были привлечены десятки пасторов и ученых.

Субтитры: Нет
Продолжительность: 06 x ~ 00:45:00
Качество видео: BDRip 1080р
Формат: MKV
Видео: MPEG-4 AVC, ~ 8150 Кбит/с, 1920x1080
Аудио rus: АС3, 6 ch, 384 Кбит/с
Аудио eng: DTS, 6 ch, 1510 Кбит/с
Нет второй серии,как появится сразу выложу

Список серий

01. В начале / In the Beginning
02. Исход / Exodus
03. Земля Обетованная / Homeland
04. Царство / Kingdom
05. Выживание / Survival
06. Надежда / Hope
07. Миссия / Mission

Тех. данные (MI)

Общее
Уникальный идентификатор : 180563552209028397882577492030163838561 (0x87D74673EDB6B41A945AC7D10F30E661)
Полное имя : C:\Users\Dmitriy\Downloads\The.Bible.s01.1080p.BluRay.BaibaKo.tv\The.Bible.s01e05.HD1080p.BluRay.Rus.Eng.BaibaKo.tv.mkv
Формат : Matroska
Версия формата : Version 4 / Version 2
Размер файла : 4,09 Гбайт
Продолжительность : 45 м.
Общий поток : 12,8 Мбит/сек
Название фильма : BaibaKo.tv presents - Библия 1x05
Дата кодирования : UTC 2010-02-22 21:41:31
Программа кодирования : mkvmerge v5.9.0 ('On The Loose') built on Dec 9 2012 15:37:01
Библиотека кодирования : libebml v1.3.0 + libmatroska v1.4.0
Видео
Идентификатор : 1
Формат : AVC
Формат/Информация : Advanced Video Codec
Профиль формата : [url=mailto:High@L4.1]High@L4.1[/url]
Параметр CABAC формата : Да
Параметр ReFrames формата : 4 кадра
Идентификатор кодека : V_MPEG4/ISO/AVC
Продолжительность : 45 м.
Битрейт : 10,9 Мбит/сек
Ширина : 1920 пикселей
Высота : 1080 пикселей
Соотношение сторон : 16:9
Режим частоты кадров : Постоянный
Частота кадров : 23,976 кадра/сек
Цветовое пространство : YUV
Субдискретизация насыщенности : 4:2:0
Битовая глубина : 8 бит
Тип развёртки : Прогрессивная
Бит/(Пиксели*Кадры) : 0.220
Размер потока : 3,40 Гбайт (83%)
Библиотека кодирования : x264 core 130 r2273 b3065e6
Настройки программы : cabac=1 / ref=4 / deblock=1:0:0 / analyse=0x3:0x2 / me=umh / subme=7 / psy=1 / psy_rd=1.00:0.00 / mixed_ref=1 / me_range=16 / chroma_me=1 / trellis=1 / 8x8dct=1 / cqm=0 / deadzone=21,11 / fast_pskip=1 / chroma_qp_offset=-2 / threads=6 / lookahead_threads=1 / sliced_threads=0 / nr=0 / decimate=1 / interlaced=0 / bluray_compat=0 / constrained_intra=0 / bframes=3 / b_pyramid=2 / b_adapt=1 / b_bias=0 / direct=1 / weightb=0 / open_gop=0 / weightp=2 / keyint=240 / keyint_min=23 / scenecut=40 / intra_refresh=0 / rc=2pass / mbtree=0 / bitrate=10927 / ratetol=1.0 / qcomp=0.60 / qpmin=10 / qpmax=51 / qpstep=4 / cplxblur=20.0 / qblur=0.5 / ip_ratio=1.40 / pb_ratio=1.30 / aq=1:1.00
Язык : English
Default : Да
Forced : Нет
Аудио #1
Идентификатор : 2
Формат : AC-3
Формат/Информация : Audio Coding 3
Расширение режима : CM (complete main)
Параметр Endianness формата : Big
Идентификатор кодека : A_AC3
Продолжительность : 45 м.
Вид битрейта : Постоянный
Битрейт : 384 Кбит/сек
Каналы : 6 каналов
Расположение каналов : Front: L C R, Side: L R, LFE
Частота : 48,0 КГц
Битовая глубина : 16 бит
Метод сжатия : С потерями
Размер потока : 126 Мбайт (3%)
Заголовок : Rus BaibaKo.tv DD5.1
Язык : Russian
Default : Да
Forced : Нет
Аудио #2
Идентификатор : 3
Формат : DTS
Формат/Информация : Digital Theater Systems
Режим : 16
Параметр Endianness формата : Big
Идентификатор кодека : A_DTS
Продолжительность : 45 м.
Вид битрейта : Постоянный
Битрейт : 1509 Кбит/сек
Каналы : 6 каналов
Расположение каналов : Front: L C R, Side: L R, LFE
Частота : 48,0 КГц
Битовая глубина : 24 бит
Метод сжатия : С потерями
Размер потока : 494 Мбайт (12%)
Заголовок : Eng DTS 5.1
Язык : English
Default : Нет
Forced : Нет

Внимание! Раздача ведётся путём добавления новых серий

Внимание! Раздача ведётся путём добавления новых серий; при каждом добавлении создаётся новый торрент.
Чтобы начать докачку новой серии, пользователям необходимо сделать следующее:
1. Остановить скачивание;
2. Удалить старый торрент у себя из клиента (старые серии удалять не надо);
3. Скачать новый торрент и запустить его у себя в клиенте вместо старого, при этом указать клиенту путь в старую папку куда и должно происходить скачивание новых серий. Ваш клиент при этом должен произвести хеширование (проверку) старой папки и будет докачивать только те серии, которых у вас ещё нет. Старые серии при этом не удаляются, а продолжают раздаваться! Eсли вы уже удалили старые серии, то предотвратить повторную закачку старых серий можно, отжав галочку в соответствующих местах при запуске нового торрента.
Добавлена 7 серия
Скриншоты:            Время раздачи: 24/7 по возможности
Вне форума [Профиль] [ЛС]
Похожие темы
Форум Тема Автор Торрент Отв. Посл. сообщение
./templates/default/images/folder_dl.gif Современная проза, классика, поэзия Библиотека "Альтернативная история глазами зарубежных авторов" Omen
0 | 1

0 | 1359

3

2011-09-19 12:16
Omen Последнее
./templates/default/images/folder_dl.gif Медицина и Здоровье Книжная серия | Библиотека здоровья [10 книг] (2011-2014) [FB2] Omen
1 | 0

0 | 508

5

2015-04-25 18:29
Omen Последнее
./templates/default/images/folder_dl.gif Компьютерная литература Уэсли Дж. Чан | Python: создание приложений. Библиотека профессионала. 3-е издание [+ Примеры] (2015) [PDF] Omen
1 | 0

0 | 876

13

2015-09-27 21:47
Omen Последнее
./templates/default/images/folder_sticky.gif Разножанровые коллекции книг и библиотеки Библиотека Либрусек по состоянию на 01.05.2018 + MultiLib [FB2] (Wanraik edition) Theseus
1 | 0

0 | 2156

1

2017-03-15 17:03
Theseus Последнее
./templates/default/images/folder_sticky.gif Разножанровые коллекции книг и библиотеки Библиотека Либрусек + MyHomeLib от 2018-04-30 [FB2] | Официальная версия Theseus
1 | 0

0 | 48759

1

2017-09-04 20:52
Theseus Последнее
Показать сообщения:    
Ответить на тему

Текущее время: Сегодня 02:02

Часовой пояс: GMT + 3



Вы не можете начинать темы
Вы не можете отвечать на сообщения
Вы не можете редактировать свои сообщения
Вы не можете удалять свои сообщения
Вы не можете голосовать в опросах
Вы не можете прикреплять файлы к сообщениям
Вы не можете скачивать файлы