Сегодня идет свободное скачивание без начисления Download

Ганнибал / Hannibal (сезон 1, серии 1-6 из 13) (2012) WEB-DL 1080p (Baibako) (Обновляемая)

Ответить на тему
 
Автор
Сообщение

UndegraundMen ®

Стаж: 5 лет 8 месяцев

Сообщений: 25860

Торрент-статистика

Пост 05-Май-2013 00:02

[Цитировать]

Ганнибал / Hannibal (сезон 1, серии 1-6 из 13) (2012) WEB-DL 1080p (Baibako) (Обновляемая)-«Как всё начиналось...»- Русское название: Ганнибал
Оригинальное название: Hannibal
Год выпуска: 2013
Жанр: Детектив, Криминал, Драма
Перевод: Многоголосый закадровый, профессиональный - Baibako
Озвучка: Александр Фурман, Алексей Кузнецов, Юлия Котурбаш и Татьяна Оболевич
Автор перевода: Вячеслав Лоев, Бюро переводов СМ-Груп (Мария Матвейчук и Анна Старинец)
Обложка: tvblog
Вид субтитров: Вшитые отключаемые
Язык субтитров: Английские
Сэмпл:
Дата мировой премьеры: 4 апреля 2013
Дата российской премьеры: 13 апреля 2013
Режиссер: Гильермо Наварро, Майкл Раймер, Дэвид Слэйд
Актеры: Мадс Миккельсен, Хью Дэнси, Каролин Давернас, Лара Жан Чоростецки, Аарон Абрамс, Лоренс Фишбёрн, Эттьенн Парк, Скотт Томпсон, Торианна Ли, Демор Барнс
Описание фильма:
До событий фильмов «Молчание ягнят» и «Красный Дракон» Доктор Ганнибал Лектер был блестящим психиатром, работающим на ФБР. Уилл Грэхэм — одаренный профайлер, который вместе с ФБР разыскивает серийного убийцу. Уникальный способ мышления Грэхэма дает ему удивительную способность глубоко проникаться чувствами другого человека, даже психопата. Он может понять, что ими движет. Но когда ум преследуемого убийцы оказывается слишком сложным, он прибегает к помощи доктора Лектера, одного из ведущих психиатрических умов в стране. В то время как Уилл охотится за жестокими преступниками, он и понятия не имеет, что каждый день имеет дело с самым одаренным из них.

Список серий

01. Aperitif / Аперитив
02. Amuse-Bouche / Затравка
03. Potage / Суп
04. Ceuf / Яичница (6 веб-серий отменённого эпизода склеенные в одну)
05. Coquilles / Блюдо в ракушке

Внимание! Раздача ведётся путём добавления новых серий!

Внимание! Раздача ведётся путём добавления новых серий; при каждом добавлении создётся новый торрент. Чтобы начать докачку новой серии, пользователям необходимо сделать следующее:
Остановить скачивание.
Удалить старый торрент у себя из клиента (старые серии удалять не надо).
Скачать новый торрент и запустить его у себя в клиенте вместо старого, при этом указать клиенту путь в старую папку куда и должно происходить скачивание новых серий.
Ваш клиент при этом должен произвести хеширование (проверку) старой папки (если не производит сам - помогите ему сделать это), и будет докачивать только те серии которых у вас ещё нет. Старые серии при этом не удаляются, а продолжают раздаваться!
Eсли вы уже удалили старые серии, то предотвратить повторную закачку старых серий можно, отжав галочку в соответсвующих местах при запуске нового торрента. По возможности, желательно не удалять старые серии как можно дольше чтобы релизёр не столько продолжал раздавать старые серии, а смог сконцентрироваться на новых.

MediaInfo

Общее
Уникальный идентификатор : 224772334442697335696539314384627741471 (0xA91993B3794461EFBF30A1DC223EB31F)
Полное имя : F:\Богдан\Сериалы\Hannibal.s01.HD1080p\Hannibal.s01e05.HD1080p.WEB-DL.Rus.Eng.BaibaKo.tv.mkv
Формат : Matroska
Версия формата : Version 4 / Version 2
Размер файла : 1,77 Гбайт
Продолжительность : 43 м.
Общий поток : 5893 Кбит/сек
Название фильма : BaibaKo.tv presents - Ганнибал 1х05
Дата кодирования : UTC 2010-02-22 21:41:31
Программа кодирования : mkvmerge v5.9.0 ('On The Loose') built on Dec 9 2012 15:37:01
Библиотека кодирования : libebml v1.3.0 + libmatroska v1.4.0
Видео
Идентификатор : 1
Формат : AVC
Формат/Информация : Advanced Video Codec
Профиль формата : [url=mailto:High@L4.0]High@L4.0[/url]
Параметр CABAC формата : Да
Параметр ReFrames формата : 4 кадра
Идентификатор кодека : V_MPEG4/ISO/AVC
Продолжительность : 43 м.
Битрейт : 5007 Кбит/сек
Ширина : 1904 пикселя
Высота : 1068 пикселей
Соотношение сторон : 16:9
Режим частоты кадров : Постоянный
Частота кадров : 23,976 кадра/сек
Цветовое пространство : YUV
Субдискретизация насыщенности : 4:2:0
Битовая глубина : 8 бит
Тип развёртки : Прогрессивная
Бит/(Пиксели*Кадры) : 0.103
Размер потока : 1,51 Гбайт (85%)
Язык : English
Default : Да
Forced : Нет
Основные цвета : BT.709
Характеристики трансфера : BT.709
Коэффициенты матрицы : BT.709
Аудио #1
Идентификатор : 2
Формат : AC-3
Формат/Информация : Audio Coding 3
Расширение режима : CM (complete main)
Параметр Endianness формата : Big
Идентификатор кодека : A_AC3
Продолжительность : 43 м.
Вид битрейта : Постоянный
Битрейт : 384 Кбит/сек
Каналы : 6 каналов
Расположение каналов : Front: L C R, Side: L R, LFE
Частота : 48,0 КГц
Битовая глубина : 16 бит
Метод сжатия : С потерями
Размер потока : 118 Мбайт (7%)
Заголовок : Rus BaibaKo.tv DD5.1
Язык : Russian
Default : Да
Forced : Нет
Аудио #2
Идентификатор : 3
Формат : AC-3
Формат/Информация : Audio Coding 3
Расширение режима : CM (complete main)
Параметр Endianness формата : Big
Идентификатор кодека : A_AC3
Продолжительность : 43 м.
Вид битрейта : Постоянный
Битрейт : 384 Кбит/сек
Каналы : 6 каналов
Расположение каналов : Front: L C R, Side: L R, LFE
Частота : 48,0 КГц
Битовая глубина : 16 бит
Метод сжатия : С потерями
Размер потока : 118 Мбайт (7%)
Заголовок : Eng DD5.1
Язык : English
Default : Нет
Forced : Нет
Продолжительность: ~00:43:00 серия
Качество видео: WEB-DL 1080p
Видеокодек: MPEG-4 AVC/H.264
Битрейт видео: ~4890
Размер кадра: 1912x1072
Аудиокодек: AC3 5.1
Аудио 1: AC-3 6 каналов, 48,0 КГц 384 Кбит/сек - rus
Аудио 2: AC-3 6 каналов, 48,0 КГц 384 Кбит/сек - eng
Скриншоты:              
Вне форума [Профиль] [ЛС]
Показать сообщения:    
Ответить на тему

Текущее время: Сегодня 08:07

Часовой пояс: GMT + 3



Вы не можете начинать темы
Вы не можете отвечать на сообщения
Вы не можете редактировать свои сообщения
Вы не можете удалять свои сообщения
Вы не можете голосовать в опросах
Вы не можете прикреплять файлы к сообщениям
Вы не можете скачивать файлы