Сегодня идет свободное скачивание без начисления Download

Государственная тайна / Secret State (2012) HDTVRip [Сезон 1, Серия 1 из 4] [Обновляемая]

Ответить на тему
 
Автор
Сообщение

UndegraundMen ®

Стаж: 5 лет 3 месяца

Сообщений: 25871

Торрент-статистика

Пост 05-Май-2013 00:02

[Цитировать]

Государственная тайна / Secret State (2012) HDTVRip [Сезон 1, Серия 1 из 4] [Обновляемая]- Русское название: Государственная тайна
Оригинальное название: Secret State
Год выпуска: 2012
Страна: Великобритания
Жанр: политическая криминальная драма
Продолжительность: 00:42:19
Перевод: Любительский одноголосый закадровый (Хамстер)
Режиссёр: Эд Фрэйман
В ролях: Гэбриэл Бирн, Дуглас Ходж, Джина Макки, Сильвестра Ле Тузель, Чарльз Дэнс, Руперт Грейвз, Рут Негга
Описание:
Британский (телеканал Channel 4) четырехсерийный мини-сериал, политическая криминальная драма, снятая на основе романа A Very British Coup (автор – Крис Маллин). Сюжет завязан на расследовании причин сокрушительного несчастного случая, произошедшего на одном из нефтехимических заводов, которым владеют американцы.

Релиз: HamsterStudio
Перевод: Notabenoid
Озвучка: Хамстер

В сериале присутствует ненормативная лексика.


Сэмпл:
Качество видео: HDTVRip
Формат: AVI
Видео: 640x268 (2.39:1), 25 fps, XviD build 64 ~1025 kbps avg, 0.24 bit/pixel
Аудио: 44.100 kHz, MPEG Layer 3, 2 ch, ~192.00 kbps avg

Раздача ведётся путём добавления новых серий

Раздача ведётся путём добавления новых серий; при каждом добавлении создаётся новый торрент. Чтобы начать докачку новой серии, пользователям необходимо сделать следующее:
(1) остановить скачивание,
(2) удалить старый торрент у себя из клиента (старые серии удалять не надо),
(3) скачать новый торрент и запустить его у себя в клиенте вместо старого, при этом указать клиенту путь в старую папку куда и должно происходить скачивание новых серий.
Ваш клиент при этом должен произвести хеширование (проверку) старой папки (если не производит сам - помогите ему сделать это), и будет докачивать только те серии которых у вас ещё нет. Старые серии при этом не удаляются, а продолжают раздаваться!
Eсли вы уже удалили старые серии, то предотвратить повторную закачку старых серий можно, отжав галочку в соответствующих местах при запуске нового торрента. По возможности, желательно не удалять старые серии как можно дольше чтобы релизёр не столько продолжал раздавать старые серии, а смог сконцентрироваться на новых.

MediaInfo

Полное имя : F:\Сериал\раздача\Secret.State.1\Secret.State.1x01.avi
Формат : AVI
Формат/Информация : Audio Video Interleave
Размер файла : 372 Мбайт
Продолжительность : 42 м.
Общий поток : 1227 Кбит/сек
Библиотека кодирования : VirtualDub build 32706/release
Видео
Идентификатор : 0
Формат : MPEG-4 Visual
Профиль формата : Advanced Simple@L5
Параметр BVOP формата : 2
Параметр QPel формата : Нет
Параметр GMC формата : Без точки перехода
Параметр матрицы формата : Default (H.263)
Идентификатор кодека : XVID
Идентификатор кодека/Подсказка : XviD
Продолжительность : 42 м.
Битрейт : 1026 Кбит/сек
Ширина : 640 пикс.
Высота : 268 пикс.
Соотношение сторон : 2,40:1
Частота кадров : 25,000 кадр/сек
Цветовое пространство : YUV
Подвыборка цветности : 4:2:0
Битовая глубина : 8 бит
Тип развёртки : Прогрессивная
Метод сжатия : С потерями
Бит/(Пиксели*Кадры) : 0.239
Размер потока : 311 Мбайт (84%)
Библиотека кодирования : XviD 64
Аудио
Идентификатор : 1
Формат : MPEG Audio
Версия формата : Version 1
Профиль формата : Layer 3
Идентификатор кодека : 55
Идентификатор кодека/Подсказка : MP3
Продолжительность : 42 м.
Вид битрейта : Постоянный
Битрейт : 192 Кбит/сек
Каналы : 2 канала
Частота : 44,1 КГц
Метод сжатия : С потерями
Задержка видео : 26 мс.
Размер потока : 58,1 Мбайт (16%)
Выравнивание : Разделение по промежуткам
Продолжительность промежутка : 40 мс. (1,00 видеокадр)
Время предзагрузки промежутка : 500 ms
       
       
Время раздачи: с 9.00 до 23.00, до первых пяти скачавших
Вне форума [Профиль] [ЛС]
Показать сообщения:    
Ответить на тему

Текущее время: Сегодня 18:27

Часовой пояс: GMT + 3



Вы не можете начинать темы
Вы не можете отвечать на сообщения
Вы не можете редактировать свои сообщения
Вы не можете удалять свои сообщения
Вы не можете голосовать в опросах
Вы не можете прикреплять файлы к сообщениям
Вы не можете скачивать файлы