Сегодня идет свободное скачивание без начисления Download

Южная Территория / Southland (2013) WEB-DLRip [720p] (Сезон 5, серии 1-6 из 10) (NewStudio) (обновляемая)

Ответить на тему
 
Автор
Сообщение

UndegraundMen ®

Стаж: 5 лет 10 месяцев

Сообщений: 25860

Торрент-статистика

Пост 04-Май-2013 00:12

[Цитировать]

Южная Территория / Southland (2013) WEB-DLRip [720p] (Сезон 5, серии 1-6 из 10) (NewStudio) (обновляемая)- Русское название: Южная Территория
Оригинальное название: Southland
Год выпуска: 2013
Жанр: Драма, Криминал, Триллер
Перевод: Многоголосый закадровый, профессиональный
Релиз:
Озвучка: Руслан Габидуллин, Константин Погодаев, Ольга Кравцова, Анна Тух (Кубик в кубе & Бяко Рекордс)
Автор перевода: Madchester
Подготовка видео: Koss
Работа со звуком: Koss
Язык субтитров: Английский, Русский
Вид субтитров: Отдельным файлом

Дата мировой премьеры: 13 февраля 2013
Режиссер: Кристофер Чулак, Нельсон МакКормик
Актеры: Кевин Алехандро (Detective Nate Moretta), Ария Барейкис (Officer Chickie Brown), Майкл Кудиц (Officer John Cooper), Шон Хэтоси (Detective Sammy Bryant), Реджина Кинг (Detective Lydia Adams), Майкл МакГрэйди (Detective Daniel Salinger), Бенжамин МакКензи (Officer Ben Sherman), Том Эверетт Скотт (Detective Russell Clarke), Эмили Бергл (Tammi Bryant), Роксана Бруссо (Detective Alicia Fernandez) и др.
Описание фильма:
Описание: «Южная Территория» (или просто «Саутленд») – полицейская драма, снятая в стилистике документального кино, духовный наследник «Прослушки», одна из самых интересных и неоднозначных новинок на эфирном телевидении. Здесь нет шика и роскоши, несмотря на то, что действие происходит в Лос-Анджелесе, и нет полицейских-супергероев, расследующих преступления века. Здесь показана рутинная работа обычных копов, которым приходится выезжать на любое происшествие, будь то обнаружение двухнедельного трупа, перестрелка между бандами или очередная семейная ссора. Их задача – сделать мир немного лучше, и при этом не стать хуже самим. Но, несмотря на кажущуюся прозаичность, «Южная Территория» – напряженный и динамичный сериал, в котором у каждого персонажа, будь то новичок Бен Шерман или циничный ветеран Джон Купер, свой взгляд на происходящее, своя история и своя правда
Продолжительность: ~ 00:45:00 серия

Список эпизодов:

Episode 1: Hats and Bats (Распри)
Episode 2: Heat (Пекло)
Episode 3: Babel (Вавилон)
Episode 4: Under the Big Top (Цирк)
Episode 5: Off Duty (Не при исполнении)
Episode 6: Истекая кровью

Внимание! Раздача ведётся путём добавления новых серий


Внимание! Раздача ведётся путём добавления новых серий; при каждом добавлении создаётся новый торрент.
Чтобы начать докачку новой серии, пользователям необходимо сделать следующее:
1. Остановить скачивание;
2. Удалить старый торрент у себя из клиента (старые серии удалять не надо);
3. Скачать новый торрент и запустить его у себя в клиенте вместо старого, при этом указать клиенту путь в старую папку куда и должно происходить скачивание новых серий. Ваш клиент при этом должен произвести хеширование (проверку) старой папки и будет докачивать только те серии, которых у вас ещё нет. Старые серии при этом не удаляются, а продолжают раздаваться! Eсли вы уже удалили старые серии, то предотвратить повторную закачку старых серий можно, отжав галочку в соответствующих местах при запуске нового торрента.

MediaInfo

Общее
Полное имя : F:\Богдан\Сериалы\Southland.s05.720p.WEB-DL.x264.NewStudio\Southland.s05e01.WEBDL.720p.NewStudio.TV.mkv
Формат : Matroska
Версия формата : Version 4 / Version 2
Размер файла : 1,54 Гбайт
Продолжительность : 47 м.
Общий поток : 4681 Кбит/сек
Дата кодирования : UTC 2013-02-21 20:54:46
Программа кодирования : mkvmerge v6.0.0 ('Coming Up For Air') built on Jan 20 2013 09:52:00
Библиотека кодирования : libebml v1.3.0 + libmatroska v1.4.0
Видео
Идентификатор : 1
Формат : AVC
Формат/Информация : Advanced Video Codec
Профиль формата : [url=mailto:High@L3.1]High@L3.1[/url]
Параметр CABAC формата : Нет
Параметр ReFrames формата : 2 кадра
Идентификатор кодека : V_MPEG4/ISO/AVC
Продолжительность : 47 м.
Битрейт : 3819 Кбит/сек
Ширина : 1280 пикселей
Высота : 720 пикселей
Соотношение сторон : 16:9
Режим частоты кадров : Постоянный
Частота кадров : 23,976 кадра/сек
Цветовое пространство : YUV
Субдискретизация насыщенности : 4:2:0
Битовая глубина : 8 бит
Тип развёртки : Прогрессивная
Бит/(Пиксели*Кадры) : 0.173
Размер потока : 1,26 Гбайт (82%)
Язык : English
Default : Да
Forced : Нет
Основные цвета : BT.709
Характеристики трансфера : BT.709
Коэффициенты матрицы : BT.709
Аудио #1
Идентификатор : 2
Формат : AC-3
Формат/Информация : Audio Coding 3
Расширение режима : CM (complete main)
Параметр Endianness формата : Big
Идентификатор кодека : A_AC3
Продолжительность : 47 м.
Вид битрейта : Постоянный
Битрейт : 384 Кбит/сек
Каналы : 6 каналов
Расположение каналов : Front: L C R, Side: L R, LFE
Частота : 48,0 КГц
Битовая глубина : 16 бит
Метод сжатия : С потерями
Размер потока : 130 Мбайт (8%)
Язык : Russian
Default : Да
Forced : Нет
Аудио #2
Идентификатор : 3
Формат : AC-3
Формат/Информация : Audio Coding 3
Расширение режима : CM (complete main)
Параметр Endianness формата : Big
Идентификатор кодека : A_AC3
Продолжительность : 47 м.
Вид битрейта : Постоянный
Битрейт : 384 Кбит/сек
Каналы : 6 каналов
Расположение каналов : Front: L C R, Side: L R, LFE
Частота : 48,0 КГц
Битовая глубина : 16 бит
Метод сжатия : С потерями
Размер потока : 130 Мбайт (8%)
Язык : English
Default : Нет
Forced : Нет
Качество видео: WEB-DL 720p
Видеокодек: MPEG-4 AVC/H.264
Битрейт видео: ~~3819 Кбит/сек
Размер кадра: 1280 x 720
Аудиокодек: AC3 5.1
Битрейт аудио:
Аудио #1: Russian / Dolby Digital 5.1, 48 kHz, 384 Kbps |NewStudio|
Аудио #2: English / Dolby Digital 5.1, 48 kHz, 384 Kbps |Оригинал|
Сэмпл: Скачать
Скриншоты:                Время раздачи: 24/7 до 10 скачавших.Релизы "Южная Территория / Southland" на /*spam*/
Вне форума [Профиль] [ЛС]
Показать сообщения:    
Ответить на тему

Текущее время: Сегодня 14:25

Часовой пояс: GMT + 3



Вы не можете начинать темы
Вы не можете отвечать на сообщения
Вы не можете редактировать свои сообщения
Вы не можете удалять свои сообщения
Вы не можете голосовать в опросах
Вы не можете прикреплять файлы к сообщениям
Вы не можете скачивать файлы