Сегодня идет свободное скачивание без начисления Download

Следствие по телу / Body of Proof (Сезон 3, серии 01-03 (13)) (2012) WEB-DLRip (Fox Life)

Ответить на тему
 
Автор
Сообщение

UndegraundMen ®

Стаж: 5 лет 8 месяцев

Сообщений: 25860

Торрент-статистика

Пост 04-Май-2013 00:12

[Цитировать]

Следствие по телу / Body of Proof
(Сезон 3, серии 01-03 из 13) (2012) WEB-DLRip (Fox Life)
- Русское название: Следствие по телу
Оригинальное название: Body of Proof
Год выхода: 2012-2013
Производство: США
Жанр: Детектив, драма, комедия
Сезон: 3
Серии: 01-03 из 13 серий
Продолжительность: ~ 43:00 мин серия
Перевод: Полное дублирование - Fox Life от
Режиссер: Нельсон МакКормик, Джон Полсон
Актеры: Дана Дилэйни, Николас Бишоп, Уинделл Миддлбрукс, Сюзанн Гиллис, Джеффри Аренд, Джон Кэрролл Линч, Джери Райан, Чак Славин, Филлис Линн и др. Описание: «Следствие по телу» рассказывает уникальную историю судебного медэксперта доктора Меган Хант. Гениальный нейрохирург в прошлом, волей обстоятельств она становится ведущим криминалистом. Доктор Хант должна проводить все время в лаборатории. Но вместо этого врач активно включается в паутину расследований и становится настоящим сыщиком от медицины. В то время как полиция пытается получить информацию от живых, доктор Хант ищет разгадки в телах мертвых. Качество: WEB-DLRip
Видео: XviD, 720x400 (16/9), 23.976 fps, 1 374 Kbps (0.199 bit/pixel)
Аудио: МР3, 48 kHz, 2 ch, ~128 kbps (RU, EN)-| Сэмпл видео | Все раздачи|-

МИ

Общее
Полное имя : \\\body.of.proof.s03e01.web-dlrip.rus.eng.novafilm.avi
Формат : AVI
Формат/Информация : Audio Video Interleave
Размер файла : 500 Мбайт
Продолжительность : 42 м.
Общий поток : 1644 Кбит/сек
Программа кодирования : VirtualDubMod 1.5.10.2 (build 2542/release)
Библиотека кодирования : VirtualDubMod build 2542/release
Видео
Идентификатор : 0
Формат : MPEG-4 Visual
Профиль формата : Advanced Simple@L5
Параметр BVOP формата : 1
Параметр QPel формата : Нет
Параметр GMC формата : Без точки перехода
Параметр матрицы формата : Default (MPEG)
Идентификатор кодека : XVID
Идентификатор кодека/Подсказка : XviD
Продолжительность : 42 м.
Битрейт : 1374 Кбит/сек
Ширина : 720 пикселей
Высота : 400 пикселей
Соотношение сторон : 16:9
Частота кадров : 23,976 кадра/сек
Цветовое пространство : YUV
Субдискретизация насыщенности : 4:2:0
Битовая глубина : 8 бит
Тип развёртки : Прогрессивная
Метод сжатия : С потерями
Бит/(Пиксели*Кадры) : 0.199
Размер потока : 418 Мбайт (84%)
Библиотека кодирования : XviD 64
Аудио #1
Идентификатор : 1
Формат : MPEG Audio
Версия формата : Version 1
Профиль формата : Layer 3
Режим : Joint stereo
Расширение режима : MS Stereo
Идентификатор кодека : 55
Идентификатор кодека/Подсказка : MP3
Продолжительность : 42 м.
Вид битрейта : Постоянный
Битрейт : 128 Кбит/сек
Каналы : 2 канала
Частота : 48,0 КГц
Метод сжатия : С потерями
Размер потока : 38,9 Мбайт (8%)
Выравнивание : Соединение по промежуткам
Продолжительность промежутка : 42 мс. (1,00 видеокадр)
Время предзагрузки промежутка : 504 мс.
Аудио #2
Идентификатор : 2
Формат : MPEG Audio
Версия формата : Version 1
Профиль формата : Layer 3
Режим : Joint stereo
Расширение режима : MS Stereo
Идентификатор кодека : 55
Идентификатор кодека/Подсказка : MP3
Продолжительность : 42 м.
Вид битрейта : Постоянный
Битрейт : 128 Кбит/сек
Каналы : 2 канала
Частота : 48,0 КГц
Метод сжатия : С потерями
Размер потока : 38,9 Мбайт (8%)
Выравнивание : Соединение по промежуткам
Продолжительность промежутка : 42 мс. (1,00 видеокадр)
Время предзагрузки промежутка : 504 мс.

Внимание! Раздача ведётся путём добавления новых серий!

Внимание! Раздача ведётся путём добавления новых серий; при каждом добавлении создаётся новый торрент.
Чтобы начать докачку новой серии, пользователям необходимо сделать следующее:
(1) остановить скачивание;
(2) удалить старый торрент у себя из клиента (старые серии удалять не надо);
(3) скачать новый торрент и запустить его у себя в клиенте вместо старого, при этом указать клиенту путь в старую папку куда и должно происходить скачивание новых серий.Ваш клиент при этом должен произвести хеширование (проверку) старой папки (если не производит сам - помогите ему сделать это), и будет докачивать только те серии которых у вас ещё нет. Старые серии при этом не удаляются, а продолжают раздаваться!Eсли вы уже удалили старые серии, то предотвратить повторную закачку старых серий можно, отжав галочку в соответствующих местах при запуске нового торрента.

-
         

еще

     
     

Альтернативные постеры

-Время раздачи: 24/7 - круглосуточно (до первых сидов - потом по возможности)
Вне форума [Профиль] [ЛС]
Похожие темы
Форум Тема Автор Торрент Отв. Посл. сообщение
./templates/default/images/folder_dl.gif Новинки (BD|HDTV|DVD) Последствия / Aftermath (Эллиотт Лестер) [2017, Триллер, Драма, WEB-DLRip 1080p] MVO (MUZOBOZ) Omen
1 | 0

0 | 1214

12

2016-03-09 09:31
Omen Последнее
./templates/default/images/folder_dl.gif Новинки (HD|DVD|BD|WEB|TV|SAT|PDTV|-Rip) Миссия невыполнима: Последствия / Mission: Impossible - Fallout (Кристофер МакКуорри) [2018 г., боевик, триллер, приключения, WEBRip-AVC] MVO | MUZOBOZ Theseus
1 | 0

0 | 507

12

2018-09-15 14:30
Theseus Последнее
Показать сообщения:    
Ответить на тему

Текущее время: Сегодня 18:15

Часовой пояс: GMT + 3



Вы не можете начинать темы
Вы не можете отвечать на сообщения
Вы не можете редактировать свои сообщения
Вы не можете удалять свои сообщения
Вы не можете голосовать в опросах
Вы не можете прикреплять файлы к сообщениям
Вы не можете скачивать файлы