Сегодня идет свободное скачивание без начисления Download

Элементарно / Elementary (2012) [Сезон 1, 1-20 из 24] WEB-DLRip [1080p] (NewStudio) (обновляемая)

Ответить на тему
 
Автор
Сообщение

UndegraundMen ®

Стаж: 5 лет 8 месяцев

Сообщений: 25860

Торрент-статистика

Пост 03-Май-2013 00:00

[Цитировать]

Элементарно / Elementary (2012)
[Сезон 1, 1-20 из 24] WEB-DLRip [1080p] (NewStudio) (обновляемая)
- Русское название: Элементарно
Оригинальное название: Elementary
Год выпуска: 2012
Жанр: Детектив, Криминал
Перевод: Многоголосый закадровый, профессиональный
Язык: Русский
Озвучка / Автор перевода: NewStudio
Вид субтитров: Вшитые отключаемые
Язык субтитров: Английские

Режиссер: Джон Дэвид Коулз, Майкл Куэста, Род Холкомб
Актеры: Джонни Ли Миллер, Люси Лью, Эйдан Куинн, Джон Майкл Хилл, Даллас Робертс, Мэнни Перез, Джонатан Уолкер, Кристен Буш, Крэйг Уолкер, Майкл Натансон, Шерри Х. Арелл, Уорд Хортон, Дженнифер Феррин, Билл Хек, Кэйси Семашко, Роза Арредондо, Рей Лукас, Кен Маркс, Аса Сомерс, Пол Майкл Вэлли, Янси Ариас, Кейтлинн Бэйли, Эндрю Чемберлен, Майкл Кантримэн, Эрин Дилли
Описание фильма:
Новый сериал от канала CBS - это криминально-детективная драма "Элементарно". Новая интерпретация классического произведения Артура Конана Дойла о Шерлоке Холмсе. Но сюжет сериала будет развиваться не по классическому сценарию, главный герой поменяет не только прописку, он переедет из Лондона в Нью-Йорк, но и эпоху, сюжет будет разворачиваться в наше время. Также зрителей ждет еще один сюрприз, теперь у Шерлока будет не помощник в лице Доктора Ватсона а помощница, роль которой досталось обворожительной Люси Лью. «Элементарно» - современная криминальная драма о дуэте детектива Шерлока Холмса (Джонни Ли Миллер) и доктора Джоан Ватсон (Люси Лю), который решает самые запутанные дела в полицейском департаменте Нью-Йорка.
Раздача путем добавления новых серий.
Добавлена 20 серия. Пожалуйста, обновите торрент-файл.
-Продолжительность: 20 x ~ 00:43:30
Качество видео: WEB-DL 1080p
Сэмпл: Скачать
Видеокодек: MPEG-4 AVC/H.264
Битрейт видео: ~ 5016 Кбит/с
Размер кадра: 1920x1080
Аудиокодек: AC3 5.1
Битрейт аудио: 384 Кбит/с

MediaInfo

General
Unique ID : 180875310964962870242572403135328376262 (0x88135158A3A559A89DA9F04D5FD955C6)
Complete name : C:\Elementary.s01.1080p.WEB-DL.Rus.Eng.NewStudio\Elementary.s01e01.1080p.WEB-DL.Rus.Eng.NewStudio.mkv
Format : Matroska
Format version : Version 2
File size : 1.89 GiB
Duration : 45mn 44s
Overall bit rate : 5 901 Kbps
Encoded date : UTC 2012-10-08 06:11:30
Writing application : mkvmerge v5.8.0 ('No Sleep / Pillow') built on Sep 2 2012 15:37:04
Writing library : libebml v1.2.3 + libmatroska v1.3.0
Video
ID : 1
Format : AVC
Format/Info : Advanced Video Codec
Format profile : [url=mailto:High@L4.0]High@L4.0[/url]
Format settings, CABAC : Yes
Format settings, ReFrames : 4 frames
Codec ID : V_MPEG4/ISO/AVC
Duration : 45mn 44s
Bit rate : 5 016 Kbps
Width : 1 920 pixels
Height : 1 080 pixels
Display aspect ratio : 16:9
Frame rate mode : Constant
Frame rate : 23.976 fps
Color space : YUV
Chroma subsampling : 4:2:0
Bit depth : 8 bits
Scan type : Progressive
Bits/(Pixel*Frame) : 0.101
Stream size : 1.60 GiB (85%)
Language : English
Default : Yes
Forced : No
Color primaries : BT.709
Transfer characteristics : BT.709
Matrix coefficients : BT.709
Audio #1
ID : 2
Format : AC-3
Format/Info : Audio Coding 3
Mode extension : CM (complete main)
Format settings, Endianness : Big
Codec ID : A_AC3
Duration : 45mn 44s
Bit rate mode : Constant
Bit rate : 384 Kbps
Channel(s) : 6 channels
Channel positions : Front: L C R, Side: L R, LFE
Sampling rate : 48.0 KHz
Bit depth : 16 bits
Compression mode : Lossy
Stream size : 126 MiB (7%)
Title : New Studio
Language : Russian
Default : Yes
Forced : No
Audio #2
ID : 3
Format : AC-3
Format/Info : Audio Coding 3
Mode extension : CM (complete main)
Format settings, Endianness : Big
Codec ID : A_AC3
Duration : 45mn 44s
Bit rate mode : Constant
Bit rate : 384 Kbps
Channel(s) : 6 channels
Channel positions : Front: L C R, Side: L R, LFE
Sampling rate : 48.0 KHz
Bit depth : 16 bits
Compression mode : Lossy
Stream size : 126 MiB (7%)
Language : English
Default : No
Forced : No
Text
ID : 4
Format : UTF-8
Codec ID : S_TEXT/UTF8
Codec ID/Info : UTF-8 Plain Text
Language : English
Default : No
Forced : No

список серий

Season 1, Episodes 1-15
01. Пилот / Pilot
02. Пока ты спала / While You Were Sleeping
03. Пожиратель детей / Child Predator
04. Крысиные бега / The Rat Race
05. Меньшее зло / Lesser Evils
06. Опасный полет / Flight Risk
07. Единственный выход / One Way To Get Off
08. Взрыв из прошлого / The Long Fuse
09. Взять все в свои руки / You Do It to Yourself
10. Левиафан / The Leviathan
11. Копаясь в грязном белье / Dirty Laundry
12. М. / M.
13. Команда красных / The Red Team
14. Гений дедукции / The Deductionist
15. Огромная пушка, заряженная наркотиком / A Giant Gun, Filled with Drugs
16. Детали / Details
17. Второй вариант / Possibility Two
18. Острое ощущение дежавю / Déjà Vu All Over Again
19. Снежные ангелы / Snow Angels
20. Страховка мертвеца / Dead Man's Switch

как добавить серию в текущую раздачу

При добавлении очередной серии создаётся новый торрент.
Чтобы начать докачку новой серии, необходимо сделать следующее:
1. Остановить скачивание;
2. Удалить старый торрент у себя из торрент-клиента (старые серии с диска удалять не надо!);
3. Скачать новый торрент и запустить его у себя в клиенте вместо старого, при этом указать клиенту путь в прежнюю папку, куда и будет закачиваться новая серия.
При этом, клиент произведет хеширование (проверку) файлов в прежней папке и будет докачивать только те серии, которых у вас ещё нет. Старые серии при этом не удаляются, а продолжают раздаваться.
Eсли вы уже удалили старые серии, то предотвратить повторную закачку старых серий можно, отжав галочку в соответствующих местах при запуске нового торрента.

расширение Chrome для мониторинга обновления релизов

Если у вас браузер Crome, и вы не хотите постоянно заходить на страницу релиза - проверять: а не появилась ли новая серия? - можно поставить расширение, которое автоматически мониторит обновления помеченных релизов на основных русскоязычных торрент-трекерах (nnm-club в том числе)
Брать здесь:
U.ssr torrents monitor
В настройках все по-русски и очевидно. Если возникнут вопросы - пишите, помогу в меру сил
.-.Скриншоты:

[
Вне форума [Профиль] [ЛС]
Показать сообщения:    
Ответить на тему

Текущее время: Сегодня 08:08

Часовой пояс: GMT + 3



Вы не можете начинать темы
Вы не можете отвечать на сообщения
Вы не можете редактировать свои сообщения
Вы не можете удалять свои сообщения
Вы не можете голосовать в опросах
Вы не можете прикреплять файлы к сообщениям
Вы не можете скачивать файлы