Сегодня идет свободное скачивание без начисления Download

Вызов / Defiance (Сезон 1, серии 01-04 (13)) (2013) WEB-DL 720p (BaibaKo)

Ответить на тему
 
Автор
Сообщение

UndegraundMen ®

Стаж: 5 лет 7 месяцев

Сообщений: 25860

Торрент-статистика

Пост 02-Май-2013 00:02

[Цитировать]

Вызов / Defiance
(Сезон 1, серии 01-04 из 13) (2013) WEB-DL 720p (BaibaKo)
- Русское название: Вызов
Оригинальное название: Defiance
Год выхода: 2013
Производство:
Жанр: Фантастика, боевик, драма
Сезон: 1
Серии: 01-04 из 13 серий
Продолжительность: ~ 00:45:00 серия
Перевод: Профессиональный многоголосый закадровый - BaibaKo
Режиссер: Майкл Нанкин / Michael Nankin
В ролях: Дьюшэйн Уильямс, Джули Бенц, Грант Боулер, Тони Карран, Тренна Китинг, Стефани Леонидас, Джейми Мюррэй, Николь Муньос, Джессика Николс, Джастин Рэйн, Бриттани Аллен и др.Описание: Сюжет сериала "Вызов" рассказывает о Земле, какой она стала после Бледных войн: противостояния землян и прилетевших "на поселение" инопланетян, чья система бинарных солнц превратилась в сверхновую. После того, как потери с обеих сторон достигли ужасных размеров и на Землю по ошибке попали терраформирующие машины инопланетян, горстка солдат осознала бессмысленность взаимного истребления и бросает вызов своим командирам. Цепная реакция привела к перемирию между землянами и вотанцами. В начале сериала со времен объявления перемирия прошло 15 лет. Бывший солдат Джозеф Нолан со своей приемной дочкой-инопланетянкой Айриссой попадает в некогда родной Сент-Луис, и вынужденно становится защитником местных жителей на посту шерифа. Ему предстоит жить в городе, ныне носящем гордое название Вызов, населенном представителями 6 рас, и бороться с силами, пытающимися стереть его с лица Земли. Качество: WEB-DL 720p
Видео: 1280x720, 4096 Кбит/с, 23.976 fps, MPEG-4 AVC, 0.185 bit/pixel
Аудио: 48 kHz, AC3, 3/2 (L,C,R,l,r) + LFE ch, ~384.00 kbps avg (RU, EN)

МИ

\\\Defiance.s01e01.HD720p.WEB-DL.Rus-Eng.BaibaKo.tv.mkv
General
  • Unique ID : 223692102791982735515197670083472332943 (0xA849882B303B1C81807A7F6E9DA3188F)
  • Complete name : D:\Filmi\Defiance (Ñåçîí 1) WEB-DL 720p\Defiance.s01e01.HD720p.WEB-DL.Rus-Eng.BaibaKo.tv.mkv
  • Format : Matroska
  • Format version : Version 4 / Version 2
  • File size : 1.56 GiB
  • Duration : 45mn 53s
  • Overall bit rate mode : Variable
  • Overall bit rate : 4 864 Kbps
  • Movie name : BaibaKo.tv presents - Âûçîâ 1x01
  • Encoded date : UTC 2010-02-22 21:41:31
  • Writing application : mkvmerge v5.9.0 ('On The Loose') built on Dec 9 2012 15:37:01
  • Writing library : libebml v1.3.0 + libmatroska v1.4.0
    Video #1
  • ID : 1
  • Format : AVC
  • Format/Info : Advanced Video Codec
  • Format profile : [url=mailto:High@L4.1]High@L4.1[/url]
  • Format settings, CABAC : Yes
  • Format settings, ReFrames : 5 frames
  • Codec ID : V_MPEG4/ISO/AVC
  • Duration : 45mn 53s
  • Bit rate mode : Variable
  • Bit rate : 4 096 Kbps
  • Maximum bit rate : 62.5 Mbps
  • Width : 1 280 pixels
  • Height : 720 pixels
  • Display aspect ratio : 16:9
  • Frame rate mode : Constant
  • Frame rate : 23.976 fps
  • Color space : YUV
  • Chroma subsampling : 4:2:0
  • Bit depth : 8 bits
  • Scan type : Progressive
  • Bits/(Pixel*Frame) : 0.185
  • Stream size : 1.28 GiB (82%)
  • Writing library : x264 core 129 r2245 bc13772
  • Encoding settings : cabac=1 / ref=5 / deblock=1:-1:-1 / analyse=0x3:0x113 / me=umh / subme=8 / psy=1 / psy_rd=1.00:0.15 / mixed_ref=1 / me_range=16 / chroma_me=1 / trellis=1 / 8x8dct=1 / cqm=0 / deadzone=21,11 / fast_pskip=1 / chroma_qp_offset=-3 / threads=6 / lookahead_threads=1 / sliced_threads=0 / nr=0 / decimate=1 / interlaced=0 / bluray_compat=0 / constrained_intra=0 / bframes=3 / b_pyramid=0 / b_adapt=2 / b_bias=0 / direct=3 / weightb=1 / open_gop=0 / weightp=2 / keyint=240 / keyint_min=24 / scenecut=40 / intra_refresh=0 / rc_lookahead=50 / rc=2pass / mbtree=1 / bitrate=4096 / ratetol=1.0 / qcomp=0.60 / qpmin=0 / qpmax=69 / qpstep=4 / cplxblur=20.0 / qblur=0.5 / vbv_maxrate=62500 / vbv_bufsize=62500 / nal_hrd=vbr / ip_ratio=1.40 / aq=1:1.00
  • Default : Yes
  • Forced : No
    Audio #2
  • ID : 2
  • Format : AC-3
  • Format/Info : Audio Coding 3
  • Mode extension : CM (complete main)
  • Format settings, Endianness : Big
  • Codec ID : A_AC3
  • Duration : 45mn 53s
  • Bit rate mode : Constant
  • Bit rate : 384 Kbps
  • Channel(s) : 6 channels
  • Channel positions : Front: L C R, Side: L R, LFE
  • Sampling rate : 48.0 KHz
  • Bit depth : 16 bits
  • Compression mode : Lossy
  • Stream size : 126 MiB (8%)
  • Title : Rus BaibaKo.tv DD5.1
  • Language : Russian
  • Default : Yes
  • Forced : No
    Audio #3
  • ID : 3
  • Format : AC-3
  • Format/Info : Audio Coding 3
  • Mode extension : CM (complete main)
  • Format settings, Endianness : Big
  • Codec ID : A_AC3
  • Duration : 45mn 53s
  • Bit rate mode : Constant
  • Bit rate : 384 Kbps
  • Channel(s) : 6 channels
  • Channel positions : Front: L C R, Side: L R, LFE
  • Sampling rate : 48.0 KHz
  • Bit depth : 16 bits
  • Compression mode : Lossy
  • Stream size : 126 MiB (8%)
  • Title : Eng DD5.1
  • Language : English
  • Default : No
  • Forced : No

Внимание! Раздача ведётся путём добавления новых серий!

Внимание! Раздача ведётся путём добавления новых серий; при каждом добавлении создаётся новый торрент.
Чтобы начать докачку новой серии, пользователям необходимо сделать следующее:
(1) остановить скачивание;
(2) удалить старый торрент у себя из клиента (старые серии удалять не надо);
(3) скачать новый торрент и запустить его у себя в клиенте вместо старого, при этом указать клиенту путь в старую папку куда и должно происходить скачивание новых серий.Ваш клиент при этом должен произвести хеширование (проверку) старой папки (если не производит сам - помогите ему сделать это), и будет докачивать только те серии которых у вас ещё нет. Старые серии при этом не удаляются, а продолжают раздаваться!Eсли вы уже удалили старые серии, то предотвратить повторную закачку старых серий можно, отжав галочку в соответствующих местах при запуске нового торрента.

-
         

Дополнительные скриншоты

     
     

Дополнительные постеры

-Время раздачи: 24/7 - круглосуточно (до первых сидов - потом по возможности)
Вне форума [Профиль] [ЛС]
Показать сообщения:    
Ответить на тему

Текущее время: Сегодня 14:43

Часовой пояс: GMT + 3



Вы не можете начинать темы
Вы не можете отвечать на сообщения
Вы не можете редактировать свои сообщения
Вы не можете удалять свои сообщения
Вы не можете голосовать в опросах
Вы не можете прикреплять файлы к сообщениям
Вы не можете скачивать файлы