Сегодня идет свободное скачивание без начисления Download

Управление гневом / Anger Management (Сезон 2, серии 1–15 из 45??) (2013) HDTVRip / WEB-DLRip [720p] (LostFilm) (Обновляемая)

Ответить на тему
 
Автор
Сообщение

UndegraundMen ®

Стаж: 5 лет 10 месяцев

Сообщений: 25860

Торрент-статистика

Пост 02-Май-2013 00:02

[Цитировать]

Управление гневом / Anger Management
(Сезон 2, серии 1−15 из 45??) (2013) HDTVRip / WEB-DLRip [720p]
- Русское название: Управление гневом
Оригинальное название: Anger Management
Год выпуска: 2013
Жанр: Комедия
Перевод: Многоголосый закадровый, профессиональный LostFilm
Дата мировой премьеры: 17.01.2013
Режиссёр: Стив Цуккерман, Энди Кэдифф, Джерри Коэн, Боб Коэрр
Актёры: Чарли Шин (Charlie Goodson), Сэльма Блэр (Kate Wales), Шоуни Смит ( Jennifer Goodson), Даниела Бобадилла (Sam Goodson), Майкл Арден (Patrick), Бэрри Корбин (Ed), Норин ДеВулф (Lacey), Дерек Ричардсон (Nolan) и др.
Описание фильма:
До своей карьеры терапевта, Чарли был в тупике из-за отсутствия перспектив в низшей бейсбольной лиге. Проблема неумения контролировать свой гнев сбила его с пути в высшую лигу. После прохождения курса терапии по борьбе с гневом, он вывел свою команду в высшую лигу и провёл один потрясающий сезон, прежде чем старые проблемы вновь не напомнили о себе. В своём финальном матче он ударил себя битой по ноге; в результате чего получил травму, которая положила конец его карьере.
Но в итоге эта же травма привела его к нынешней профессии. В то время как Чарли борется со своим гневом, в его жизни процветает хаос. Всё осложняется его отношениями с собственным терапевтом (являющейся его подругой); бывшей женой, чьи позитивные взгляды на будущее, но при этом плохой выбор мужчин, расстраивают Чарли и их 13-летнюю дочь, имеющую психические расстройства.
Сериал отчасти основан на комедии 2003 года «Управление гневом» с Джеком Николсоном и Адамом Сэндлером в главных ролях.

Список эпизодов:

E01 Как Чарли психанул на предрожденчике (Charlie Loses it at a Baby Shower), (00:21:25)
E02 Как у папы Чарли начала ехать крыша (Charlie's Dad Starts to Lose It), (00:21:40)
E03 Чарли встречает бывшую пациентку (Charlie and the Ex-Patient), (00:21:37)
E04 Папа Чарли срывается (Charlie's Dad Breaks Bad), (00:21:41)
E05 Чарли и Джен снова вместе (Charlie & Jen Together Again), (00:21:44)
E06 Чарли и иллюзорная терапия (Charlie and Deception Therapy), (00:21:44)
E07 Чарли кадрит училку (Charlie Dates a Teacher), (00:21:37)
E08 Чарли и Си Ло (Charlie & Cee Lo), (00:21:40)
E09 Чарли выступает экспертом в суде (Charlie Is an Expert Witness), (00:21:38), добавлен 18.03.2013 г.
E10 Чарли и католицизм (Charlie & Catholicism), (00:21:10), добавлен 18.03.2013 г.
E11 Чарли и его любовница - безумная, сексуальная, сердитая (Charlie Dates Crazy, Sexy, Angry), (00:21:38), добавлен 08.04.2013 г.
E12 Чарли втягивает Линдси Лохан в неприятности (Charlie Gets Lindsay Lohan Into Trouble), (00:22:41), добавлен 16.04.2013 г.
E13 Чарли и Лэйси разозлили соседей (Charlie and Lacey Piss Off the Neighborhood), (00:21:37), добавлен 22.04.2013 г.
E14 Чарли и Кейт резвятся в конюшне (Charlie and Kate Horse Around), (00:21:39), добавлен 22.04.2013 г.
E15 Пациенты Чарли заводят роман (Charlie's Patients Hook Up), (00:21:28), добавлен 29.04.2013 г.

MediaInfo

Общее
Уникальный идентификатор : 226570831427236528428332616058556928996 (0xAA73F472D26648FFB887C9732A1053E4)
Полное имя : H:\Serials\Anger.Management.S02.HD.rus.eng.LostFilm\Anger.Management.S02E01.720p.rus.LostFilm.TV.mkv
Формат : Matroska
Версия формата : Version 2
Размер файла : 737 Мбайт
Продолжительность : 21 м.
Общий поток : 4811 Кбит/сек
Дата кодирования : UTC 2013-01-21 17:39:01
Программа кодирования : mkvmerge v4.2.0 ('No Talking') сборка от Jul 28 2010 18:38:23
Библиотека кодирования : libebml v1.0.0 + libmatroska v1.0.0
Видео
Идентификатор : 1
Формат : AVC
Формат/Информация : Advanced Video Codec
Профиль формата : [url=mailto:High@L3.1]High@L3.1[/url]
Параметр CABAC формата : Да
Параметр ReFrames формата : 4 кадра
Идентификатор кодека : V_MPEG4/ISO/AVC
Продолжительность : 21 м.
Битрейт : 4041 Кбит/сек
Ширина : 1280 пикселей
Высота : 720 пикселей
Соотношение сторон : 16:9
Режим частоты кадров : Постоянный
Частота кадров : 23,976 кадра/сек
Цветовое пространство : YUV
Субдискретизация насыщенности : 4:2:0
Битовая глубина : 8 бит
Тип развёртки : Прогрессивная
Бит/(Пиксели*Кадры) : 0.183
Размер потока : 605 Мбайт (82%)
Библиотека кодирования : x264 core 112 r1834 a51816a
Настройки программы : cabac=1 / ref=1 / deblock=1:0:0 / analyse=0x3:0x113 / me=hex / subme=7 / psy=1 / psy_rd=1.00:0.00 / mixed_ref=0 / me_range=16 / chroma_me=1 / trellis=1 / 8x8dct=1 / cqm=0 / deadzone=21,11 / fast_pskip=1 / chroma_qp_offset=-2 / threads=6 / sliced_threads=0 / nr=0 / decimate=1 / interlaced=0 / constrained_intra=0 / bframes=3 / b_pyramid=2 / b_adapt=1 / b_bias=0 / direct=1 / weightb=1 / open_gop=0 / weightp=2 / keyint=250 / keyint_min=25 / scenecut=40 / intra_refresh=0 / rc_lookahead=40 / rc=2pass / mbtree=1 / bitrate=4041 / ratetol=1.0 / qcomp=0.60 / qpmin=0 / qpmax=51 / qpstep=4 / cplxblur=20.0 / qblur=0.5 / ip_ratio=1.40 / aq=1:1.00
Default : Да
Forced : Нет
Аудио #1
Идентификатор : 2
Формат : AC-3
Формат/Информация : Audio Coding 3
Расширение режима : CM (complete main)
Параметр Endianness формата : Big
Идентификатор кодека : A_AC3
Продолжительность : 21 м.
Вид битрейта : Постоянный
Битрейт : 384 Кбит/сек
Каналы : 2 канала
Расположение каналов : Front: L R
Частота : 44,1 КГц
Битовая глубина : 16 бит
Метод сжатия : С потерями
Размер потока : 58,9 Мбайт (8%)
Default : Да
Forced : Нет
Аудио #2
Идентификатор : 3
Формат : AC-3
Формат/Информация : Audio Coding 3
Расширение режима : CM (complete main)
Параметр Endianness формата : Big
Идентификатор кодека : A_AC3
Продолжительность : 21 м.
Вид битрейта : Постоянный
Битрейт : 384 Кбит/сек
Каналы : 2 канала
Расположение каналов : Front: L R
Частота : 48,0 КГц
Битовая глубина : 16 бит
Метод сжатия : С потерями
Размер потока : 58,9 Мбайт (8%)
Default : Нет
Forced : Нет
Общее
Уникальный идентификатор : 224854202858674114185577684406349726791 (0xA92958202850CCDEA9F1B4CF35460447)
Полное имя : H:\Serials\Anger.Management.S02.HD.rus.eng.LostFilm\Anger.Management.S02E05.720p.rus.LostFilm.TV.mkv
Формат : Matroska
Версия формата : Version 2
Размер файла : 748 Мбайт
Продолжительность : 21 м.
Общий поток : 4811 Кбит/сек
Дата кодирования : UTC 2013-02-11 16:30:47
Программа кодирования : mkvmerge v4.2.0 ('No Talking') сборка от Jul 28 2010 18:38:23
Библиотека кодирования : libebml v1.0.0 + libmatroska v1.0.0
Видео
Идентификатор : 1
Формат : AVC
Формат/Информация : Advanced Video Codec
Профиль формата : [url=mailto:High@L3.1]High@L3.1[/url]
Параметр CABAC формата : Да
Параметр ReFrames формата : 4 кадра
Идентификатор кодека : V_MPEG4/ISO/AVC
Продолжительность : 21 м.
Битрейт : 4041 Кбит/сек
Ширина : 1280 пикселей
Высота : 720 пикселей
Соотношение сторон : 16:9
Режим частоты кадров : Постоянный
Частота кадров : 23,976 кадра/сек
Цветовое пространство : YUV
Субдискретизация насыщенности : 4:2:0
Битовая глубина : 8 бит
Тип развёртки : Прогрессивная
Бит/(Пиксели*Кадры) : 0.183
Размер потока : 614 Мбайт (82%)
Библиотека кодирования : x264 core 112 r1834 a51816a
Настройки программы : cabac=1 / ref=1 / deblock=1:0:0 / analyse=0x3:0x113 / me=hex / subme=7 / psy=1 / psy_rd=1.00:0.00 / mixed_ref=0 / me_range=16 / chroma_me=1 / trellis=1 / 8x8dct=1 / cqm=0 / deadzone=21,11 / fast_pskip=1 / chroma_qp_offset=-2 / threads=6 / sliced_threads=0 / nr=0 / decimate=1 / interlaced=0 / constrained_intra=0 / bframes=3 / b_pyramid=2 / b_adapt=1 / b_bias=0 / direct=1 / weightb=1 / open_gop=0 / weightp=2 / keyint=250 / keyint_min=25 / scenecut=40 / intra_refresh=0 / rc_lookahead=40 / rc=2pass / mbtree=1 / bitrate=4041 / ratetol=1.0 / qcomp=0.60 / qpmin=0 / qpmax=51 / qpstep=4 / cplxblur=20.0 / qblur=0.5 / ip_ratio=1.40 / aq=1:1.00
Default : Да
Forced : Нет
Аудио #1
Идентификатор : 2
Формат : AC-3
Формат/Информация : Audio Coding 3
Расширение режима : CM (complete main)
Параметр Endianness формата : Big
Идентификатор кодека : A_AC3
Продолжительность : 21 м.
Вид битрейта : Постоянный
Битрейт : 384 Кбит/сек
Каналы : 2 канала
Расположение каналов : Front: L R
Частота : 44,1 КГц
Битовая глубина : 16 бит
Метод сжатия : С потерями
Размер потока : 59,7 Мбайт (8%)
Default : Да
Forced : Нет
Аудио #2
Идентификатор : 3
Формат : AC-3
Формат/Информация : Audio Coding 3
Расширение режима : CM (complete main)
Параметр Endianness формата : Big
Идентификатор кодека : A_AC3
Продолжительность : 21 м.
Вид битрейта : Постоянный
Битрейт : 384 Кбит/сек
Каналы : 2 канала
Расположение каналов : Front: L R
Частота : 48,0 КГц
Битовая глубина : 16 бит
Метод сжатия : С потерями
Размер потока : 59,7 Мбайт (8%)
Default : Нет
Forced : Нет

Внимание! Раздача ведётся путём добавления новых серий!

Внимание! Раздача ведётся путём добавления новых серий, при каждом добавлении создаётся новый торрент. Чтобы начать докачку новой серии, пользователям необходимо сделать следующее:
  • Остановить скачивание.
  • Удалить старый торрент у себя из клиента (старые серии удалять не надо).
  • Скачать новый торрент, и запустить его у себя в клиенте вместо старого, при этом указать клиенту путь в старую папку, куда и должно происходить скачивание новых серий.Ваш клиент при этом должен произвести хеширование (проверку) старой папки (если не производит сам – помогите ему сделать это), и будет докачивать только те серии, которых у вас ещё нет. Старые серии при этом не удаляются, а продолжают раздаваться!
    Если вы уже удалили старые серии, то предотвратить повторную закачку старых серий можно, отжав галочку в соответствующих местах при запуске нового торрента. По возможности, желательно не удалять старые серии как можно дольше, чтобы релизёр не столько продолжал раздавать старые серии, а смог сконцентрироваться на новых.[url=/forum/viewtopic.php?t=197684]Как закачать отдельный файл из торрента, или докачать ранее пропущенные файлы торрента.[/url]
-Продолжительность: 15 × ~00:21:30
Качество видео: 1–4 HDTVRip 720p
Видеокодек: MPEG-4 AVC
Битрейт видео: ~4041 Кбит/сек
Размер кадра: 1280×720
Аудиокодек: AC3
Битрейт аудио #1 (Rus): 384 Кбит/сек, 2 ch
Битрейт аудио #2 (Eng): 384 Кбит/сек, 2 ch
Качество видео: 5–15 WEB-DLRip 720p
Видеокодек: MPEG-4 AVC
Битрейт видео: ~4041 Кбит/сек
Размер кадра: 1280×720
Аудиокодек: AC3
Битрейт аудио #1 (Rus): 384 Кбит/сек, 2 ch
Битрейт аудио #2 (Eng): 384 Кбит/сек, 2 ch
Скриншоты:
       
       
Время раздачи: 24/7 (до первых сидов, далее по возможности)
Вне форума [Профиль] [ЛС]
Похожие темы
Форум Тема Автор Торрент Отв. Посл. сообщение
./templates/default/images/folder_dl.gif Обучающее видео Достаточно общая теория управления - Видеокурс лекций (2004) DVDRip Omen
0 | 1

0 | 394

0

2013-01-14 21:03
Omen Последнее
./templates/default/images/folder_dl.gif Кулинария Том ДеМарко | Deadline. Роман об управлении проектами [2006] [FB2] UndegraundMen
1 | 0

0 | 873

4

2013-03-04 22:25
UndegraundMen Последнее
./templates/default/images/folder_dl.gif Обучающее видео Специалист | 1С:Предприятие 8. Управление торговлей (ред.11). Уровень 1. Торговые и складские операции (2012) [PCRec] Omen
1 | 0

0 | 1877

73

2014-07-12 12:45
Omen Последнее
./templates/default/images/folder_dl.gif Психология, Тренинг, Саморазвитие Юлия Щербинина | Речевая защита. Учимся управлять агрессией (2016) [FB2, EPUB, MOBI, RTF, DOCX] }{@R0N
1 | 0

0 | 1840

5

2017-07-22 10:38
}{@R0N Последнее
./templates/default/images/folder_dl.gif Бизнес, Право, Экономика, Финансы Надежда Котельникова | Лайфхаки по управлению личными финансами (2018) [PDF] }{@R0N
1 | 0

0 | 682

10

2018-03-25 23:00
}{@R0N Последнее
Показать сообщения:    
Ответить на тему

Текущее время: Сегодня 23:43

Часовой пояс: GMT + 3



Вы не можете начинать темы
Вы не можете отвечать на сообщения
Вы не можете редактировать свои сообщения
Вы не можете удалять свои сообщения
Вы не можете голосовать в опросах
Вы не можете прикреплять файлы к сообщениям
Вы не можете скачивать файлы