Today is a free download without charge Download

(alt country, americana) Fred Eaglesmith - Dusty - 2004, FLAC (image+.cue), lossless

Reply to topic
 
Author
Message

Omen ®

Longevity: 7 years 9 months

Posts: 181087

Торрент-статистика

Post 28-Apr-2013 12:18

[Quote]

Fred Eaglesmith / Dusty
Жанр: alt country, americana
Страна-производитель диска: Canada
Год издания: 2004
Издатель (лейбл): A Major Label
Номер по каталогу: FRED10
Страна: Canada
Аудиокодек: FLAC (*.flac)
Тип рипа: image+.cue
Битрейт аудио: lossless
Продолжительность: 45:00
Источник (релизер): transgressions
Наличие сканов в содержимом раздачи: да
Треклист:
1. Dusty
2. Tunnel
3. I 75
4. Ship
5. Rainbow
6. Whicita
7. Crowds
8. Hey Baby
9. Codeine
10. Carne Del Toro

Лог создания рипа

Exact Audio Copy V0.99 prebeta 5 from 4. May 2009
EAC extraction logfile from 27. July 2009, 11:16
Fred Eaglesmith / Dusty
Used drive : HL-DT-STDVDRAM GH20NS15 Adapter: 2 ID: 0
Read mode : SecureUtilize accurate stream : YesDefeat audio cache : YesMake use of C2 pointers : No
Read offset correction : 667Overread into Lead-In and Lead-Out : NoFill up missing offset samples with silence : YesDelete leading and trailing silent blocks : NoNull samples used in CRC calculations : YesUsed interface : Native Win32 interface for Win NT & 2000
Used output format : Internal WAV RoutinesSample format : 44.100 Hz; 16 Bit; Stereo
TOC of the extracted CD
Track | Start | Length | Start sector | End sector --------------------------------------------------------- 1 | 0:00.00 | 4:43.10 | 0 | 21234 2 | 4:43.10 | 3:44.24 | 21235 | 38058 3 | 8:27.34 | 4:46.28 | 38059 | 59536 4 | 13:13.62 | 4:35.54 | 59537 | 80215 5 | 17:49.41 | 3:52.65 | 80216 | 97680 6 | 21:42.31 | 7:11.15 | 97681 | 130020 7 | 28:53.46 | 5:21.35 | 130021 | 154130 8 | 34:15.06 | 3:11.58 | 154131 | 168513 9 | 37:26.64 | 5:03.00 | 168514 | 191238 10 | 42:29.64 | 3:28.68 | 191239 | 206906
Range status and errors
Selected range
Filename C:\musjk\Fred Eaglesmith - Dusty.wav
Peak level 100.0 % Range quality 100.0 % Test CRC 29D16BA9 Copy CRC 29D16BA9 Copy OK
No errors occurred
AccurateRip summary
Track 1 accurately ripped (confidence 3) [2844CA43]Track 2 accurately ripped (confidence 2) [74C549C7]Track 3 accurately ripped (confidence 3) [4A1ABDBF]Track 4 accurately ripped (confidence 3) [B35D3D2B]Track 5 accurately ripped (confidence 2) [861C3120]Track 6 accurately ripped (confidence 2) [DF76B86A]Track 7 accurately ripped (confidence 2) [213E6E2F]Track 8 accurately ripped (confidence 2) [6C6292F7]Track 9 accurately ripped (confidence 3) [1B1B2A93]Track 10 accurately ripped (confidence 2) [0863D92C]
All tracks accurately ripped
End of status report
http://www.youtube.com/watch?v=VcWaz8WCHcE
Other forum [Profile] [PM]

Dracula

Longevity: 6 years 9 months

Posts: 11308

Торрент-статистика

Post 28-Apr-2013 17:31 (after 5 hours)

Топик был перенесен из форума Rock в форум Country


RUGUI
 
Display posts from previous:    
Reply to topic

The time now is: Today 09:48

All times are GMT + 3 Hours



You cannot post new topics in this forum
You cannot reply to topics in this forum
You cannot edit your posts in this forum
You cannot delete your posts in this forum
You cannot vote in polls in this forum
You cannot attach files in this forum
You cannot download files in this forum