Сегодня идет свободное скачивание без начисления Download

Демоны да Винчи / Da Vinci\'s Demons (Сезон 1, серии 01-01 (8)) (2013) WEB-DL 720p (Foxlife)

Ответить на тему
 
Автор
Сообщение

UndegraundMen ®

Стаж: 5 лет 3 месяца

Сообщений: 25871

Торрент-статистика

Пост 28-Апр-2013 00:07

[Цитировать]

Демоны да Винчи / Da Vinci's Demons
(Сезон 1, серии 01-01 из 8) (2013) WEB-DL 720p (Foxlife)
- Русское название: Демоны да Винчи
Оригинальное название: Da Vinci's Demons
Год выхода: 2013
Производство: США, Starz
Жанр: Псевдоистория, драма, приключения
Сезон: 1
Серии: 01-01 из 8 серий
Продолжительность: ~ 00:59:00 серия
Перевод: Профессиональный многоголосый закадровый - Foxlife
Режиссер: Дэвид С. Гойер, Джейми Пэйн, Пол Уилмсхёрст, Майкл Дж. Бассетт
Актеры: Том Райли, Лаура Хэддок, Блейк Ритсон, Эллиот Кауэн, Лара Пулвер, Грегг Чиллин, Гера Хилмар, Эрос Влахос, Джеймс Фолкнер, Том Бейтман, Александр Сиддиг, Пол Вествуд, Джан Эрик Мэдсен, Джеймс Бриэн и др.Описание: В мире, где мысль и вера находятся под контролем, один человек борется за то, чтобы сделать знания доступными для всех.
Не рассказанная история трагичной жизни Леонардо да Винчи раскрывает портрет молодого человека, которого мучает дар гения. Он - еретик, жаждущий раскрыть ложь религии. Бунтарь, стремящийся низвергнуть элитарное общество. Незаконнорожденный сын, требующий от своего отца признания его прав.
Он оказывается посреди разразившегося урагана страстей, который спал веками. Внутри конфликта между правдой и ложью, религией и интеллектом, прошлым и будущим. Его стремления используются против него противоборствующими силами того времени, вовлекая его в соблазнительную игру, в которой те, кто презирает его ум, нуждаются в нём больше всего.
Леонардо должен вступить в конфронтацию с теми, кто использует историю, чтобы скрыть истину. Вооружённый лишь собственным гением да Винчи в одиночку противостоит тьме как внутри, так и снаружи.
Перед лицом неопределённости будущего его поход за знаниями едва не становится для него погибелью, когда он переходит за грань своего здравомыслия. Да Винчи, словно в омут с головой, уходит в собственные гениальные идеи, воплотив которые, становится необоримой силой, вытаскивающей из темноты и поворачивающей к свету целую эпоху.
Его история становится зеркалом для нашего мира, зовущее всех нас на бой за свободное будущее...
Качество: WEBDL 720p
Видео: V_MPEG4/ISO/AVC, ~4000 kb/s, 1280x720, 23.976 fps, 23.976 fps
Аудио: AC3, 192 kb/s, 48.0 KHz, 2 ch (RU, EN)
-| Сэмпл видео\ Онлайн-сэмпл (putlocker) | |-

МИ

\\\Da.Vinci's.Demons.s01e01.WEBDL.720p.NewStudio.TV.mkv
  • Format : Matroska
  • Format version : Version 2
  • File size : 1.90 GiB
  • Duration : 58mn 53s
  • Overall bit rate : 4 610 Kbps
  • Encoded date : UTC 2013-04-26 18:21:18
  • Writing application : mkvmerge v2.9.9 ('Tutu') built on Nov 25 2009 21:13:32
  • Writing library : libebml v0.7.9 + libmatroska v0.8.1
    Video #1
  • ID : 1
  • Format : AVC
  • Format/Info : Advanced Video Codec
  • Format profile : [url=mailto:High@L3.1]High@L3.1[/url]
  • Format settings, CABAC : No
  • Format settings, ReFrames : 2 frames
  • Codec ID : V_MPEG4/ISO/AVC
  • Duration : 58mn 53s
  • Bit rate : 3 942 Kbps
  • Width : 1 280 pixels
  • Height : 718 pixels
  • Display aspect ratio : 16:9
  • Frame rate mode : Constant
  • Frame rate : 23.976 fps
  • Color space : YUV
  • Chroma subsampling : 4:2:0
  • Bit depth : 8 bits
  • Scan type : Progressive
  • Bits/(Pixel*Frame) : 0.179
  • Stream size : 1.62 GiB (86%)
  • Language : English
  • Default : No
  • Forced : No
  • Color primaries : BT.709
  • Transfer characteristics : BT.709
  • Matrix coefficients : BT.709
    Audio #2
  • ID : 2
  • Format : AC-3
  • Format/Info : Audio Coding 3
  • Mode extension : CM (complete main)
  • Format settings, Endianness : Big
  • Codec ID : A_AC3
  • Duration : 58mn 53s
  • Bit rate mode : Constant
  • Bit rate : 192 Kbps
  • Channel(s) : 2 channels
  • Channel positions : Front: L R
  • Sampling rate : 48.0 KHz
  • Bit depth : 16 bits
  • Compression mode : Lossy
  • Stream size : 80.9 MiB (4%)
  • Default : Yes
  • Forced : Yes
    Audio #3
  • ID : 3
  • Format : AC-3
  • Format/Info : Audio Coding 3
  • Mode extension : CM (complete main)
  • Format settings, Endianness : Big
  • Codec ID : A_AC3
  • Duration : 58mn 53s
  • Bit rate mode : Constant
  • Bit rate : 384 Kbps
  • Channel(s) : 6 channels
  • Channel positions : Front: L C R, Side: L R, LFE
  • Sampling rate : 48.0 KHz
  • Bit depth : 16 bits
  • Compression mode : Lossy
  • Stream size : 162 MiB (8%)
  • Language : English
  • Default : No
  • Forced : No

Внимание! Раздача ведётся путём добавления новых серий!

Внимание! Раздача ведётся путём добавления новых серий; при каждом добавлении создаётся новый торрент.
Чтобы начать докачку новой серии, пользователям необходимо сделать следующее:
(1) остановить скачивание;
(2) удалить старый торрент у себя из клиента (старые серии удалять не надо);
(3) скачать новый торрент и запустить его у себя в клиенте вместо старого, при этом указать клиенту путь в старую папку куда и должно происходить скачивание новых серий.Ваш клиент при этом должен произвести хеширование (проверку) старой папки (если не производит сам - помогите ему сделать это), и будет докачивать только те серии которых у вас ещё нет. Старые серии при этом не удаляются, а продолжают раздаваться!Eсли вы уже удалили старые серии, то предотвратить повторную закачку старых серий можно, отжав галочку в соответствующих местах при запуске нового торрента.

-
         

Дополнительные скриншоты

     
     
     

Дополнительные постеры

-
Вне форума [Профиль] [ЛС]

Dracula

Стаж: 4 года 7 месяцев

Сообщений: 10635

Торрент-статистика

Пост 28-Апр-2013 11:00 (спустя 10 часов)

Топик был перенесен из форума Приключения, детектив, боевик, триллер в форум Зарубежные сериалы


alex
 
Похожие темы
Форум Тема Автор Торрент Отв. Посл. сообщение
./templates/default/images/folder_dl.gif Книги для IPhone, IPod, Apple Горъ Василий - Демон. Книга 2. Шаг в преисподнюю [Гинатуллин Рустам (ЛИ), 2016, Фантастика, 128 kbps], M4B VHS
1 | 0

0 | 1081

2

2016-05-30 18:56
VHS Последнее
./templates/default/images/folder_dl.gif Фантастика, фэнтези, ужасы, мистика Виктор Точинов | Демоны Рая (2018) [FB2] }{@R0N
1 | 0

0 | 76

5

2018-05-14 22:18
}{@R0N Последнее
Показать сообщения:    
Ответить на тему

Текущее время: Сегодня 00:19

Часовой пояс: GMT + 3



Вы не можете начинать темы
Вы не можете отвечать на сообщения
Вы не можете редактировать свои сообщения
Вы не можете удалять свои сообщения
Вы не можете голосовать в опросах
Вы не можете прикреплять файлы к сообщениям
Вы не можете скачивать файлы