Сегодня идет свободное скачивание без начисления Download

Стрела / Arrow (2012) WEB-DLRip [H.264/1080p] [Сезон 1, серии 01-20 (22)] [BaibaKo]

Ответить на тему
 
Автор
Сообщение

UndegraundMen ®

Стаж: 5 лет 3 месяца

Сообщений: 25871

Торрент-статистика

Пост 28-Апр-2013 00:07

[Цитировать]

Стрела / Arrow (2012) [Сезон 1, серии 01-20 (22)] WEB-DLRip [H.264/1080p] [Baibako] - Русское название: Стрела
Оригинальное название: Arrow
Год выпуска: 2012
Жанр: Фантастика, Боевик, Приключения
Перевод: Многоголосый закадровый, профессиональный
Язык: Русский
Озвучка / Автор перевода: BaibaKo
Вид субтитров: Отсутствуют
Релиз группа:

Дата мировой премьеры: 10.10.2012
Режиссер: Дэвид Баррет, Дэвид Наттер
Актеры: Стивен Амелл, Эмили Бетт Рикардс, Кэти Кэссиди, Уилла Холлэнд, Джейми Шеридан, Жаклин МакИннес Вуд, Колин Сэлмон, Кэтлин Гати, Пол Блекторн, Сюзанна Томпсон и др.
Описание фильма:
После спланированного кораблекрушения, плейбой и миллиардер Оливер Куин пропадает и считается погибшим в течение пяти лет. Его обнаруживают живым на затерянном острове в Тихом океане. Когда он возвращается домой в Старлинг-Сити, его мать, сестра и лучший друг видят, что Оливер изменился. В то же время Оливер ищет примирения со своей бывшей подругой Лорел Лэнс. Когда с близкими Оливера что-то приключается, он тайно становится Стрелой, и пытается справляться со злом, борясь с бедами общества, а также пытается вернуть былую славу Старлинг-Сити.

Дополнительная информация:

Перевод: Янина Галицкая
Озвучка: Владимир Курдов, Руслан Иванов, Юлия Котурбаш и Светлана Доманова
Сведение: Vitall Digitall
Обложка: tvblog
Продолжительность: ~ 00:42:00 серия
Качество видео: WEB-DLRip 1080p
Сэмпл: Скачать
Видеокодек: MPEG-4 AVC/H.264
Битрейт видео: ~5193 Кбит/сек
Размер кадра: 1920x1080
Аудиокодек: AC3 5.1
Битрейт аудио: 384 Кбит/сек
Аудио 1 RUS: AC3, 6 каналов, 48.0 КГц, 384 Кбит/сек CBR
Аудио 2 ENG: AC3, 6 каналов, 48.0, КГц, 384 Кбит/сек CBR

MediaInfo

General
Unique ID : 181476273574109706068991764703321002092 (0x88870F172A38E548AEE0759AA308106C)
Complete name : C:\Users\ksang\Downloads\Arrow.s01e01.HD1080p.WEB_DL.Rus.Eng.BaibaKo.mkv
Format : Matroska
File size : 37.9 MiB
Duration : 1mn 2s
Overall bit rate : 5 114 Kbps
Movie name : BaibaKo.tv presents - Стрела 1х01 Пилот
Encoded date : UTC 2012-10-17 08:18:55
Writing application : mkvmerge v5.5.0 ('Healer') built on Apr 6 2012 21:43:24
Writing library : libebml v1.2.3 + libmatroska v1.3.0
Video
ID : 1
Format : AVC
Format/Info : Advanced Video Codec
Format profile : [url=mailto:High@L4.0]High@L4.0[/url]
Format settings, CABAC : Yes
Format settings, ReFrames : 4 frames
Format settings, GOP : M=2, N=29
Codec ID : V_MPEG4/ISO/AVC
Duration : 1mn 2s
Bit rate : 4 244 Kbps
Width : 1 920 pixels
Height : 1 080 pixels
Display aspect ratio : 16:9
Frame rate : 23.976 fps
Color space : YUV
Chroma subsampling : 4:2:0
Bit depth : 8 bits
Scan type : Progressive
Bits/(Pixel*Frame) : 0.085
Stream size : 31.4 MiB (83%)
Language : English
Color primaries : BT.709-5, BT.1361, IEC 61966-2-4, SMPTE RP177
Transfer characteristics : BT.709-5, BT.1361
Matrix coefficients : BT.709-5, BT.1361, IEC 61966-2-4 709, SMPTE RP177
Audio #1
ID : 2
Format : AC-3
Format/Info : Audio Coding 3
Mode extension : CM (complete main)
Codec ID : A_AC3
Duration : 1mn 2s
Bit rate mode : Constant
Bit rate : 384 Kbps
Channel(s) : 6 channels
Channel positions : Front: L C R, Side: L R, LFE
Sampling rate : 48.0 KHz
Bit depth : 16 bits
Compression mode : Lossy
Delay relative to video : 7ms
Stream size : 2.84 MiB (8%)
Title : Rus BaibaKo.tv DD5.1
Language : Russian
Audio #2
ID : 3
Format : AC-3
Format/Info : Audio Coding 3
Mode extension : CM (complete main)
Codec ID : A_AC3
Duration : 1mn 2s
Bit rate mode : Constant
Bit rate : 384 Kbps
Channel(s) : 6 channels
Channel positions : Front: L C R, Side: L R, LFE
Sampling rate : 48.0 KHz
Bit depth : 16 bits
Compression mode : Lossy
Delay relative to video : 7ms
Stream size : 2.84 MiB (8%)
Title : Eng DD5.1
Language : English
Скриншоты:
Вне форума [Профиль] [ЛС]
Похожие темы
Форум Тема Автор Торрент Отв. Посл. сообщение
./templates/default/images/folder_dl.gif Фантастика, фэнтези, ужасы, мистика Владимир Стрельников | Приключения Василия Ромашкина, бортстрелка и некроманта (2016) [FB2] moralis
1 | 0

0 | 1224

15

2016-04-24 21:58
moralis Последнее
./templates/default/images/folder_dl.gif Фантастика, фэнтези, ужасы, мистика Владимир Стрельников | Опасные тропы. Рядовой срочной службы (2017) [MP3] }{@R0N
1 | 0

0 | 372

3

2018-01-14 16:42
}{@R0N Последнее
./templates/default/images/folder_dl.gif Фантастика, фэнтези, ужасы, мистика Владимир Стрельников | Простые Оружные Парни (2017) [MP3] }{@R0N
1 | 0

0 | 322

3

2018-01-14 16:43
}{@R0N Последнее
Показать сообщения:    
Ответить на тему

Текущее время: Сегодня 00:27

Часовой пояс: GMT + 3



Вы не можете начинать темы
Вы не можете отвечать на сообщения
Вы не можете редактировать свои сообщения
Вы не можете удалять свои сообщения
Вы не можете голосовать в опросах
Вы не можете прикреплять файлы к сообщениям
Вы не можете скачивать файлы