Сегодня идет свободное скачивание без начисления Download

Клуб Винкс / Школа волшебниц /Winx Club (Cезон 5 , Серия 1-21) (2012) WEBDLRip/SATRip (Обновляемая)

Ответить на тему
 
Автор
Сообщение

UndegraundMen ®

Стаж: 4 года 7 месяцев

Сообщений: 26499

Торрент-статистика

Пост 28-Апр-2013 00:07

[Цитировать]

Клуб Винкс / Winx Club (Cезон 5) (2012) WEBDLRip/SATRip- Русское название: Клуб Винкс
Оригинальное название: Winx Club
Год выпуска: 2012
Жанр: Мультсериал, Анимация, Приключения, Фэнтези
Описание:
Новые приключение команды Винкс! Феи отправляются в Гардению на поиски магического цветка - Лило. По неприятному стечению обстоятельств, мистическую силу цветка забирают себе давние враги Винкс - Трикс! Так начинается новое приключение многими любимых фей! Их ждут тернистые испытания судьбы, волшебные встречи и большие разочарования!
Режиссёр: Иджинио Страффи
Роли озвучивали: Группа Magic on Russian with You
Перевод: Любительский (закадровый, многоголосный)
Продолжительность: Каждая серия ~ 00:23:00
Видеокодек: XviD
Битрейт видео: ~1500 kb/s
Размер кадра: 720 x 400
Качество видео: WEBDLRip/SATRip
Аудио RUS: AC-3, 2ch., 192 kb/s
Релиз группа:

Список серий

1. Утечка / The Spill
2. Месть Тританнуса / The Rise of Tritannus
3. Возвращение в Алфею / Return to Alfea
4. Книга Сиреникса / The Sirenix Book
5. Лило / The Lilo
6. Сила Гармоникса / The.Power of Harmonix
7. Сияющие ракушки / The Shimmering Shells
8. Секрет рубинового рифа /Secret of the Ruby Reef
9. Камень сострадания / The Gem Of Empathy
10. Рождество в Алфеи / Natale Ad Alfea
11. Проделки Трикс / Trix Tricks
12. Испытание на смелость / Test of Courage
13. Сиреникс / Sirenix
14. Императорский трон / The.Emperor's Throne
15. Столб света / The Pillar of Light
16. Затмение / The Eclipse
17. Далёкие отражения / Faraway Reflections
18. Пожиратель / The Devourer
19. Поющие киты / The Singing Whales
20. Любовные неприятности / The Problems of Love
21. Идеальное свидание / A Perfect Date

MediaInfo

Общее
Полное имя : C:\Winx.Club.S05E01.The.Spill.WEBDLRip.avi
Формат : AVI
Формат/Информация : Audio Video Interleave
Размер файла : 288 Мбайт
Продолжительность : 23 м.
Общий поток : 1702 Кбит/сек
Программа кодирования : VirtualDubModRus 1.5.10.1 (build 2439/release)
Библиотека кодирования : VirtualDubMod build 2439/release
Видео
Идентификатор : 0
Формат : MPEG-4 Visual
Профиль формата : Advanced Simple@L5
Параметр BVOP формата : 2
Параметр QPel формата : Нет
Параметр GMC формата : Без точки перехода
Параметр матрицы формата : Default (H.263)
Идентификатор кодека : XVID
Идентификатор кодека/Подсказка : XviD
Продолжительность : 23 м.
Битрейт : 1500 Кбит/сек
Ширина : 720 пикселей
Высота : 400 пикселей
Соотношение сторон : 16:9
Частота кадров : 25,000 кадров/сек
Цветовое пространство : YUV
Субдискретизация насыщенности : 4:2:0
Битовая глубина : 8 бит
Тип развёртки : Прогрессивная
Метод сжатия : С потерями
Бит/(Пиксели*Кадры) : 0.208
Размер потока : 254 Мбайт (88%)
Библиотека кодирования : XviD 64
Аудио
Идентификатор : 1
Формат : AC-3
Формат/Информация : Audio Coding 3
Профиль формата : Dolby Digital
Расширение режима : CM (complete main)
Идентификатор кодека : 2000
Продолжительность : 23 м.
Вид битрейта : Постоянный
Битрейт : 192 Кбит/сек
Каналы : 2 канала
Расположение каналов : Front: L R
Частота : 48,0 КГц
Битовая глубина : 16 бит
Метод сжатия : С потерями
Размер потока : 32,5 Мбайт (11%)
Выравнивание : Разделение по промежуткам
Продолжительность промежутка : 40 мс. (1,00 видеокадр)
Время предзагрузки промежутка : 500 мс.
Общее
Полное имя : C:\Winx.Club.S05E02.The.Rise.of.Tritannus.WEBDLRip.avi
Формат : AVI
Формат/Информация : Audio Video Interleave
Размер файла : 309 Мбайт
Продолжительность : 23 м.
Общий поток : 1826 Кбит/сек
Программа кодирования : VirtualDubModRus 1.5.10.1 (build 2439/release)
Библиотека кодирования : VirtualDubMod build 2439/release
Видео
Идентификатор : 0
Формат : MPEG-4 Visual
Профиль формата : Advanced Simple@L5
Параметр BVOP формата : 2
Параметр QPel формата : Нет
Параметр GMC формата : Без точки перехода
Параметр матрицы формата : Default (H.263)
Идентификатор кодека : XVID
Идентификатор кодека/Подсказка : XviD
Продолжительность : 23 м.
Битрейт : 1624 Кбит/сек
Ширина : 720 пикселей
Высота : 400 пикселей
Соотношение сторон : 16:9
Частота кадров : 25,000 кадров/сек
Цветовое пространство : YUV
Субдискретизация насыщенности : 4:2:0
Битовая глубина : 8 бит
Тип развёртки : Прогрессивная
Метод сжатия : С потерями
Бит/(Пиксели*Кадры) : 0.226
Размер потока : 275 Мбайт (89%)
Библиотека кодирования : XviD 64
Аудио
Идентификатор : 1
Формат : AC-3
Формат/Информация : Audio Coding 3
Профиль формата : Dolby Digital
Расширение режима : CM (complete main)
Идентификатор кодека : 2000
Продолжительность : 23 м.
Вид битрейта : Постоянный
Битрейт : 192 Кбит/сек
Каналы : 2 канала
Расположение каналов : Front: L R
Частота : 48,0 КГц
Битовая глубина : 16 бит
Метод сжатия : С потерями
Размер потока : 32,5 Мбайт (11%)
Выравнивание : Разделение по промежуткам
Продолжительность промежутка : 40 мс. (1,00 видеокадр)
Время предзагрузки промежутка : 500 мс.
Общее
Полное имя : C:\Winx.Club.S05E05.The.Lilo.WEBDLRip.avi
Формат : AVI
Формат/Информация : Audio Video Interleave
Размер файла : 288 Мбайт
Продолжительность : 23 м.
Общий поток : 1702 Кбит/сек
Программа кодирования : VirtualDubModRus 1.5.10.1 (build 2439/release)
Библиотека кодирования : VirtualDubMod build 2439/release
Видео
Идентификатор : 0
Формат : MPEG-4 Visual
Профиль формата : Advanced Simple@L5
Параметр BVOP формата : 2
Параметр QPel формата : Нет
Параметр GMC формата : Без точки перехода
Параметр матрицы формата : Default (H.263)
Идентификатор кодека : XVID
Идентификатор кодека/Подсказка : XviD
Продолжительность : 23 м.
Битрейт : 1500 Кбит/сек
Ширина : 720 пикселей
Высота : 400 пикселей
Соотношение сторон : 16:9
Частота кадров : 25,000 кадров/сек
Цветовое пространство : YUV
Субдискретизация насыщенности : 4:2:0
Битовая глубина : 8 бит
Тип развёртки : Прогрессивная
Метод сжатия : С потерями
Бит/(Пиксели*Кадры) : 0.208
Размер потока : 254 Мбайт (88%)
Библиотека кодирования : XviD 64
Аудио
Идентификатор : 1
Формат : AC-3
Формат/Информация : Audio Coding 3
Профиль формата : Dolby Digital
Расширение режима : CM (complete main)
Идентификатор кодека : 2000
Продолжительность : 23 м.
Вид битрейта : Постоянный
Битрейт : 192 Кбит/сек
Каналы : 2 канала
Расположение каналов : Front: L R
Частота : 48,0 КГц
Битовая глубина : 16 бит
Метод сжатия : С потерями
Размер потока : 32,5 Мбайт (11%)
Выравнивание : Разделение по промежуткам
Продолжительность промежутка : 40 мс. (1,00 видеокадр)
Время предзагрузки промежутка : 500 мс.
Скриншоты:                    
Вне форума [Профиль] [ЛС]

Graf_yalta

Пол:

Стаж: 6 лет 7 месяцев

Сообщений: 10

Откуда: Ялта

Торрент-статистика

Пост 18-Май-2013 20:02 (спустя 20 дней)

[Цитировать]

Дайте скорости

_________________



Вне форума [Профиль] [ЛС]

Omen

Стаж: 4 года 10 месяцев

Сообщений: 190643

Торрент-статистика

Пост 18-Май-2013 21:48 (спустя 1 час 46 минут)

[Цитировать]

Graf_yalta, Раздача обновлена.
Вне форума [Профиль] [ЛС]
Показать сообщения:    
Ответить на тему

Текущее время: Сегодня 22:28

Часовой пояс: GMT + 3



Вы не можете начинать темы
Вы не можете отвечать на сообщения
Вы не можете редактировать свои сообщения
Вы не можете удалять свои сообщения
Вы не можете голосовать в опросах
Вы не можете прикреплять файлы к сообщениям
Вы не можете скачивать файлы