Сегодня идет свободное скачивание без начисления Download

Хемлок Гроув / Hemlock Grove (Сезон 1, серия 01 (13)) (2013) WEBRip (NewStudio) (обновляемая)

Ответить на тему
 
Автор
Сообщение

UndegraundMen ®

Стаж: 5 лет 6 месяцев

Сообщений: 25860

Торрент-статистика

Пост 24-Апр-2013 00:03

[Цитировать]

Хемлок Гроув / Hemlock Grove
(Сезон 1, серия 01 (13)) (2013) WEBRip (NewStudio)
(обновляемая)
-«The monster is within.»- Русское название: Хемлок Гроув
Оригинальное название: Hemlock Grove
Год выпуска: 2013
Страна: США
Жанр: Ужасы, фантастика, триллер
Перевод: Профессиональный многоголосый закадровый - NewStudio
Режиссер: Деран Сарафян, Т.Дж. Скотт
Актеры: Фамке Янссен, Пенелопа Митчелл, Фрея Тингли, Лили Тейлор, Билл Скарсгард, Лэндон Либуарон, Дюгрэй Скотт, Николь Буавен, Аарон Дуглас, Лори Фортье и др.
Описание:
В городке Хемлок Гроув, выросшем вокруг сталелитейного завода Годфри, находят изувеченное тело девушки. Некоторые подозревают беглеца из «Белой Башни», биотехнологической лаборатории, принадлежащей бывшим владельцам завода. Другие полагают, что убийца — Питер, семнадцатилетний цыган, который рассказывает одноклассникам, что он оборотень. Третий подозреваемый — Роман (Скарсгаард), отпрыск рода Годфри. Не дожидаясь, пока власти найдут убийцу, Питер и Роман решают сами раскрыть это преступление. Им предстоит узнать немало страшных тайн о городе, в котором они живут, и о самих себе.
СЭМПЛ
Продолжительность: ~00:46:00 серия
Качество видео: WEBRip
Формат: AVI
Видео: 720x400 (16:9), 23.976 fps, XviD ~1389 kbps, ~0.201 bit/pixel
Аудио Rus: 48 kHz, MPEG Layer 3, 2 ch, 128 kbps CBR
Аудио Eng: 48 kHz, MPEG Layer 3, 2 ch, 128 kbps CBR
Релиз-группа:
Озвучка: Владимир Курдов, Анна Тух, Константин Погодаев
Автор перевода: Александра Цернант, Григорий Сенин        

Тех. данные (MI)

Общее
Hemlock.Grove.s01e01.WEBRip_NewStudio.TV.avi
Формат : AVI
Формат/Информация : Audio Video Interleave
Размер файла : 550 Мбайт
Продолжительность : 46 м.
Общий поток : 1659 Кбит/сек
Программа кодирования : VirtualDubMod 1.5.10.2 (build 2540/release)
Библиотека кодирования : VirtualDubMod build 2540/release
Видео
Идентификатор : 0
Формат : MPEG-4 Visual
Профиль формата : Advanced Simple@L5
Параметр BVOP формата : 2
Параметр QPel формата : Нет
Параметр GMC формата : Без точки перехода
Параметр матрицы формата : Default (MPEG)
Идентификатор кодека : XVID
Идентификатор кодека/Подсказка : XviD
Продолжительность : 46 м.
Битрейт : 1389 Кбит/сек
Ширина : 720 пикселей
Высота : 400 пикселей
Соотношение сторон : 16:9
Частота кадров : 23,976 кадра/сек
Цветовое пространство : YUV
Субдискретизация насыщенности : 4:2:0
Битовая глубина : 8 бит
Тип развёртки : Прогрессивная
Метод сжатия : С потерями
Бит/(Пиксели*Кадры) : 0.201
Размер потока : 461 Мбайт (84%)
Библиотека кодирования : XviD 65
Аудио #1
Идентификатор : 1
Формат : MPEG Audio
Версия формата : Version 1
Профиль формата : Layer 3
Режим : Joint stereo
Расширение режима : MS Stereo
Идентификатор кодека : 55
Идентификатор кодека/Подсказка : MP3
Продолжительность : 46 м.
Вид битрейта : Постоянный
Битрейт : 128 Кбит/сек
Каналы : 2 канала
Частота : 48,0 КГц
Метод сжатия : С потерями
Размер потока : 42,4 Мбайт (8%)
Выравнивание : Соединение по промежуткам
Продолжительность промежутка : 42 мс. (1,00 видеокадр)
Время предзагрузки промежутка : 504 мс.
Аудио #2
Идентификатор : 2
Формат : MPEG Audio
Версия формата : Version 1
Профиль формата : Layer 3
Режим : Joint stereo
Расширение режима : MS Stereo
Идентификатор кодека : 55
Идентификатор кодека/Подсказка : MP3
Продолжительность : 46 м.
Вид битрейта : Постоянный
Битрейт : 128 Кбит/сек
Каналы : 2 канала
Частота : 48,0 КГц
Метод сжатия : С потерями
Размер потока : 42,4 Мбайт (8%)
Выравнивание : Соединение по промежуткам
Продолжительность промежутка : 42 мс. (1,00 видеокадр)
Время предзагрузки промежутка : 504 мс.
Библиотека кодирования : LAME3.99r
Настройки программы : -m j -V 4 -q 2 -lowpass 17 -b 128

Список серий

01. Jellyfish in the Sky / Медуза в небе

Внимание! Раздача ведётся путём добавления новых серий

Внимание! Раздача ведётся путём добавления новых серий; при каждом добавлении создаётся новый торрент.
Чтобы начать докачку новой серии, пользователям необходимо сделать следующее:
1. Остановить скачивание;
2. Удалить старый торрент у себя из клиента (старые серии удалять не надо);
3. Скачать новый торрент и запустить его у себя в клиенте вместо старого, при этом указать клиенту путь в старую папку куда и должно происходить скачивание новых серий. Ваш клиент при этом должен произвести хеширование (проверку) старой папки и будет докачивать только те серии, которых у вас ещё нет. Старые серии при этом не удаляются, а продолжают раздаваться! Eсли вы уже удалили старые серии, то предотвратить повторную закачку старых серий можно, отжав галочку в соответствующих местах при запуске нового торрента.
Время раздачи: 24/7
Вне форума [Профиль] [ЛС]

Dracula

Стаж: 4 года 10 месяцев

Сообщений: 11552

Торрент-статистика

Пост 25-Апр-2013 17:46 (спустя 1 день 17 часов)

Топик был перенесен из форума Rock в форум Зарубежные сериалы


RUGUI
 
Показать сообщения:    
Ответить на тему

Текущее время: Сегодня 19:06

Часовой пояс: GMT + 3



Вы не можете начинать темы
Вы не можете отвечать на сообщения
Вы не можете редактировать свои сообщения
Вы не можете удалять свои сообщения
Вы не можете голосовать в опросах
Вы не можете прикреплять файлы к сообщениям
Вы не можете скачивать файлы