Сегодня идет свободное скачивание без начисления Download

Симпсоны / The Simpsons / Сезон: 23 / Серии: 1-3 (22) (Мэтт Гроунинг / Matt Groening) [2011 г., Комедия, сатира., WEB-DL l 720p] озвучка 2х2 (Быстров, Савина, Эльдаров) + MVO

Ответить на тему
 
Автор
Сообщение

Omen ®

Стаж: 4 года 10 месяцев

Сообщений: 190643

Торрент-статистика

Пост 23-Апр-2013 12:14

[Цитировать]

-Оригинальное название: The Simpsons
Русское название: Симпсоны
Год выпуска: 2011
Страна: США
Жанр: Приключения, комедия, фантастика
Продолжительность: 20 минут (серия)-Перевод: Профессиональный (многоголосый, закадровый) по заказу 2х2
Роли озвучивали: Ирина Савина, Борис Быстров, Даниил Эльдаров
Субтитры: есть (русские, Нотабенойд)-Производство: FOX
Режиссер: Мэтт Гроунинг / Matt Groening-Роли озвучивали: Дэн Кастелланета, Джули Кавнер, Нэнси Картрайт, Ярдли Смит, Гарри Ширер, Хэнк Азария, Памела Хейден, Тресс МакНилл, Карл Видерготт, Мэгги Росвэлл и др.-Описание: Симпсоны живут в вымышленном городе Спрингфилд, со своим обществом и историей. Гомер - отец семейства, который дает плохие советы и работает инспектором безопасности на атомной электростанции; Мардж - любящая мать и жена, старается сохранить спокойствие в семье; Барт - 10 летний хулиган; Лиза - философский 8-летний ребенок; и Мэгги - младенец, который общается посредством соски.- -Спасибо ALEKS KV, Den.S-92, 4erkov, Xottabi4 за звук, in_finiti за субтитры, Gater за сборку VO-Production и SerGoLeOne за синхронизацию дорожек 2х2 и QTV.-Качество: WEB-DL 720p
Формат: MKV
Видео кодек: h264
Аудио кодек: AC3
Видео: h264 1280x720, 23.976 fps, ~4Mbps, 0.174 bit/pixel
Аудио:
  • русская 2x2: Dolby AC3 48000Hz stereo 192Kbps,
  • русская VO-Production: Dolby AC3 48000Hz stereo 192Kbps,
  • украинская QTV (начиная со 2 серии): Dolby AC3 48000Hz stereo 192Kbps,
  • английская: Dolby AC3 48000Hz 6ch 384Kbps
Скриншоты:
-

Список серий

23 сезон:
01. The Falcon and the D'ohman
02. Treehouse of Horror XXII
03. Replaceable You

Media Info

Код:
General
Unique ID                                : 229578505656167168683656436800539109750 (0xACB7363CA8CD165C8A0C1107416CA976)
Complete name                            : X:\HD\The Simpsons. 23 season (WEB-DL l 720p l SerGoLeOne)\01. The Falcon and the D'ohman.mkv
Format                                   : Matroska
Format version                           : Version 1
File size                                : 735 MiB
Duration                                 : 21mn 51s
Overall bit rate                         : 4 704 Kbps
Movie name                               : The Simpsons (2011) S23E01 - The Falcon and the D'Ohman - @ - Gater -
Encoded date                             : UTC 2013-04-15 18:10:33
Writing application                      : mkvmerge v2.3.0 ('Freak U') built on Sep  8 2008 18:32:16
Writing library                          : libebml v0.7.7 + libmatroska v0.8.1
Video
ID                                       : 1
Format                                   : AVC
Format/Info                              : Advanced Video Codec
Format profile                           : High@L3.1
Format settings, CABAC                   : No
Format settings, ReFrames                : 2 frames
Codec ID                                 : V_MPEG4/ISO/AVC
Duration                                 : 21mn 51s
Bit rate                                 : 3 842 Kbps
Width                                    : 1 280 pixels
Height                                   : 720 pixels
Display aspect ratio                     : 16:9
Frame rate mode                          : Constant
Frame rate                               : 23.976 fps
Color space                              : YUV
Chroma subsampling                       : 4:2:0
Bit depth                                : 8 bits
Scan type                                : Progressive
Bits/(Pixel*Frame)                       : 0.174
Stream size                              : 601 MiB (82%)
Title                                    : The Simpsons (2011) S23E01 - The Falcon and the D'Ohman - @ - Gater -
Language                                 : English
Default                                  : Yes
Forced                                   : No
Color primaries                          : BT.709
Transfer characteristics                 : BT.709
Matrix coefficients                      : BT.709
Audio #1
ID                                       : 2
Format                                   : AC-3
Format/Info                              : Audio Coding 3
Mode extension                           : CM (complete main)
Format settings, Endianness              : Big
Codec ID                                 : A_AC3
Duration                                 : 21mn 51s
Bit rate mode                            : Constant
Bit rate                                 : 192 Kbps
Channel(s)                               : 2 channels
Channel positions                        : Front: L R
Sampling rate                            : 48.0 KHz
Bit depth                                : 16 bits
Compression mode                         : Lossy
Stream size                              : 30.0 MiB (4%)
Title                                    : 2x2
Language                                 : Russian
Default                                  : Yes
Forced                                   : No
Audio #2
ID                                       : 3
Format                                   : AC-3
Format/Info                              : Audio Coding 3
Mode extension                           : CM (complete main)
Format settings, Endianness              : Big
Codec ID                                 : A_AC3
Duration                                 : 21mn 51s
Bit rate mode                            : Constant
Bit rate                                 : 192 Kbps
Channel(s)                               : 2 channels
Channel positions                        : Front: L R
Sampling rate                            : 48.0 KHz
Bit depth                                : 16 bits
Compression mode                         : Lossy
Stream size                              : 30.0 MiB (4%)
Title                                    : VO-Production
Language                                 : Russian
Default                                  : No
Forced                                   : No
Audio #3
ID                                       : 4
Format                                   : AC-3
Format/Info                              : Audio Coding 3
Mode extension                           : CM (complete main)
Format settings, Endianness              : Big
Codec ID                                 : A_AC3
Duration                                 : 21mn 51s
Bit rate mode                            : Constant
Bit rate                                 : 384 Kbps
Channel(s)                               : 6 channels
Channel positions                        : Front: L C R, Side: L R, LFE
Sampling rate                            : 48.0 KHz
Bit depth                                : 16 bits
Compression mode                         : Lossy
Stream size                              : 60.0 MiB (8%)
Title                                    : Original
Language                                 : English
Default                                  : No
Forced                                   : No
Text #1
ID                                       : 5
Format                                   : UTF-8
Codec ID                                 : S_TEXT/UTF8
Codec ID/Info                            : UTF-8 Plain Text
Title                                    : Notabenoid
Language                                 : Russian
Default                                  : Yes
Forced                                   : No
Text #2
ID                                       : 6
Format                                   : UTF-8
Codec ID                                 : S_TEXT/UTF8
Codec ID/Info                            : UTF-8 Plain Text
Title                                    : Original
Language                                 : English
Default                                  : No
Forced                                   : No
Вне форума [Профиль] [ЛС]
Показать сообщения:    
Ответить на тему

Текущее время: Сегодня 04:37

Часовой пояс: GMT + 3



Вы не можете начинать темы
Вы не можете отвечать на сообщения
Вы не можете редактировать свои сообщения
Вы не можете удалять свои сообщения
Вы не можете голосовать в опросах
Вы не можете прикреплять файлы к сообщениям
Вы не можете скачивать файлы