Сегодня идет свободное скачивание без начисления Download

Чип и Дейл спешат на помощь / Chip and Dale Rescue Rangers / Сезон: 1 / Серии: 1-14 из 65 (Кори Бартон, Питэр Куллэн, Джим Каммингс / Corey Burton, Peter Cullen, Jim Cummings) [1989, Приключения, семейный, детектив, DVB] Dub (Disney)

Ответить на тему
 
Автор
Сообщение

Omen ®

Стаж: 5 лет

Сообщений: 190530

Торрент-статистика

Пост 03-Апр-2013 09:48

[Цитировать]

Чип и Дейл спешат на помощь / Chip and Dale Rescue Rangers Страна: США
Жанр: Приключения, семейный, детектив
Продолжительность: 00:21:48
Год выпуска: 1989
Перевод: Профессиональный (дублированный)
Русские субтитры: нет
Режиссёры: Кори Бартон, Питэр Куллэн, Джим Каммингс / Corey Burton, Peter Cullen, Jim Cummings
Роли озвучивали:
Чип – Наталья Защипина (1-18, 20-53), Ксения Бржезовская (Невафильм: 19, 54-65)
Дейл – Александр Леньков (1-18, 20-53), Андрей Лёвин (Невафильм: 19, 54-65)
Рокки (Рокфор) – Всеволод Абдулов (1-18, 20-53), Андрей Шамин (Невафильм: 19, 54-65)
Гайка – Раиса Мухаметшина (1-10, 15-18, 20-26, 32-40, 46-53) и Наталья Гурзо (11-14, 27-31, 43-45)
Толстопуз – Борис Кумаритов
Профессор Нимнул – Вячеслав Богачёв, Андрей Тенетко (Невафильм)
Описание: Знаменитый мультсериал Уолта Диснея о захватывающих приключениях отважных спасателей - Чипа, Дэйла, Рокфора, Гайки и Вжика, которые всегда готовы отправиться навстречу неожиданным опасностям и невероятным приключениям, лишь бы помочь другим в беде. Данный мультсериал прочно закрепил 2-е место по популярности после Утиных историй, но иногда даже делят лидерство с момента их создания и не уступают пьедестал никому вот уже более 20 лет. В 2011 году этот сериал также празднует свой 20-й юбилей в России вместе с Утиными историями, с которыми идут рука об руку все эти 20 лет. Их по прежнему любят миллионы детей и даже взрослые, ставшие родителями, также смотрят этот сериал с большим удовольствием во всём мире. Также в 2011 году сериал отмечает и 15 лет как был показан на этом канале: 1 декабря 1996 года.
Доп. информация: В раздаче в виде отдельных файлов присутствуют заставки "Сейчас на канале..." и "Далее на канале...".
Ссылка на предыдущие и альтернативные раздачи: http:///*spam*//forum/tracker.php?nm=Chip%20an...Rescue%20Rangers
Семпл: http://multi-up.com/840424
Качество: DVB
Формат: MPG
Видео: MPEG2, 720x576, 25.000 fps, 3.806 Kbps
Аудио: MP2, 48.0 KHz, 2 ch, 128 Kbps
Субтитры: Отсутствуют

Список серий

Сезон 1:
01. Кошки не в счёт
02. Приключения коралловой клуши
03. Охотники за коврами
04. Подводные пираты
05. Как мы нянчились с бельчатами
06. Удивительная собака Флеш
07. Завещание сэра Баскервилля
08. Родительское благоразумие – в сторону
09. Пчёлы - дело рискованное
10. Держись, малыш
11. На старт
12. Дейл-инопланетянин
13. Большое приключение киви
14. Волшебная лампа

Внимание! Раздача ведётся путём добавления новых серий

Внимание! Раздача ведётся путём добавления новых серий; при каждом добавлении создаётся новый торрент. Чтобы начать докачку новой серии, пользователям необходимо сделать следующее:
(1) остановить скачивание,
(2) удалить старый торрент у себя из клиента (старые серии удалять не надо),
(3) скачать новый торрент и запустить его у себя в клиенте вместо старого, при этом указать клиенту путь в старую папку куда и должно происходить скачивание новых серий.
Ваш клиент при этом должен произвести хеширование (проверку) старой папки (если не производит сам - помогите ему сделать это), и будет докачивать только те серии которых у вас ещё нет. Старые серии при этом не удаляются, а продолжают раздаваться!
Eсли вы уже удалили старые серии, то предотвратить повторную закачку старых серий можно, отжав галочку в соответствующих местах при запуске нового торрента. По возможности, желательно не удалять старые серии как можно дольше чтобы релизёр не столько продолжал раздавать старые серии, а смог сконцентрироваться на новых.

Подробные технические данные

GeneralComplete name : D:\IPTV\Чип и Дейл спешат на помощь\Chip and Dale Rescue Rangers.s01.e01.mpgFormat : MPEG-PSFile size : 626 MiBDuration : 21mn 48sOverall bit rate mode : VariableOverall bit rate : 4 014 Kbps
VideoID : 224 (0xE0)Format : MPEG VideoFormat version : Version 2Format profile : Main@MainFormat settings, BVOP : YesFormat settings, Matrix : CustomFormat settings, GOP : M=3, N=12Duration : 21mn 48sBit rate mode : VariableBit rate : 3 806 KbpsMaximum bit rate : 10 000 KbpsWidth : 720 pixelsHeight : 576 pixelsDisplay aspect ratio : 4:3Frame rate : 25.000 fpsStandard : PALColor space : YUVChroma subsampling : 4:2:0Bit depth : 8 bitsScan type : InterlacedScan order : Top Field FirstCompression mode : LossyBits/(Pixel*Frame) : 0.367Stream size : 594 MiB (95%)
AudioID : 192 (0xC0)Format : MPEG AudioFormat version : Version 1Format profile : Layer 2Duration : 21mn 48sBit rate mode : ConstantBit rate : 128 KbpsChannel(s) : 2 channelsSampling rate : 48.0 KHzCompression mode : LossyDelay relative to video : -14msStream size : 20.0 MiB (3%)

Скриншоты

Вне форума [Профиль] [ЛС]
Показать сообщения:    
Ответить на тему

Текущее время: Сегодня 03:19

Часовой пояс: GMT + 3



Вы не можете начинать темы
Вы не можете отвечать на сообщения
Вы не можете редактировать свои сообщения
Вы не можете удалять свои сообщения
Вы не можете голосовать в опросах
Вы не можете прикреплять файлы к сообщениям
Вы не можете скачивать файлы