Сегодня идет свободное скачивание без начисления Download

Симпсоны / The Simpsons / Сезон: 24 / Серии 1-16 (22) (Мэтт Гроунинг / Matt Groening) [2011-2013 гг., мультфильм, комедия, WEB-DLRip] MVO (VO-Production)

Ответить на тему
 
Автор
Сообщение

Omen ®

Стаж: 4 года 10 месяцев

Сообщений: 190643

Торрент-статистика

Пост 03-Апр-2013 09:48

[Цитировать]

--Симпсоны / The Simpsons- Год выхода в эфир: 2012-2013 гг.
Страна: США | 20th Century Fox Television
Жанр: мультфильм, комедия
Продолжительность: ~ 00:23:00
Перевод: Профессиональный (многоголосый, закадровый) /VO-Production/
Субтитры: Отсутствуют
Режиссер: Мэтт Гроунинг / Matt Groening-Роли озвучивали: Дэн Кастелланета, Джули Кавнер, Нэнси Картрайт, Ярдли Смит, Гарри Ширер, Хэнк Азария, Джо Энн Харрис, Памела Хейден, Крис Латта, Марсия Уоллес и др.-Описание: Мультфильм — пародия на американский уклад жизни. Cемейство Симпсонов состоит из пяти членов: папаша Гомер, мать семейства Мардж, их дочери Лиза и Мэгги и несносный подросток Барт.
- Все раздачи мультсериала- -Качество: WEB-DLRip
Формат: AVI [сэмпл]
Видео кодек: XviD
Аудио кодек: MP3
Видео: 656x368 (16/9), 23.976 fps, 861 Kbps (0.159 bit/pixel)
Аудио: 48.0 KHz, 2 ch, 128 Kbps |VO-Production|
Аудио: 48.0 KHz, 2 ch, 128 Kbps |Оригинал|-

Скриншоты



-

Список серий

1. Moonshine River - Sep. 30, 2012
2. Treehouse of Horror XXIII - Oct. 7, 2012
3. Adventures in Baby-Getting - Nov. 4, 2012
4. Gone Abie Gone - Nov. 11, 2012
5. Penny-Wiseguys - Nov. 18, 2012
6. A Tree Grows in Springfield - Nov. 25, 2012
7. The Day the Earth Stood Cool - Dec. 9, 2012
8. To Cur with Love - Dec. 16, 2012
9. Homer Goes to Prep School - Jan. 6, 2013
10. A Test Before Trying - Jan. 13, 2013
11. Changing of the Guardian - Jan. 27, 2013
12. Love Is a Many Splintered Thing - Feb. 10, 2013
13. Hardly Kirk-ing - Feb. 17, 2013
14. Gorgeous Grampa - Mar. 3, 2013
15. Black-Eyed, Please - Mar. 10, 2013
16. Dark Knight Court - Mar. 17, 2013

-

MI

Код:
Общее
Полное имя                               : I:\Симпсоны (Сезон 24) VO-Production\The.Simpsons.S24E01.WEB-DLRip./*spam*/.avi
Формат                                   : AVI
Формат/Информация                        : Audio Video Interleave
Размер файла                             : 200 Мбайт
Продолжительность                        : 21 м.
Общий поток                              : 1311 Кбит/сек
Программа кодирования                    : VirtualDubMod 1.5.10.3 | www.virtualdub-fr.org || (build 2550/release)
Библиотека кодирования                   : VirtualDubMod build 2550/release
Видео
Идентификатор                            : 0
Формат                                   : MPEG-4 Visual
Профиль формата                          : Advanced Simple@L5
Параметр BVOP формата                    : 1
Параметр QPel формата                    : Нет
Параметр GMC формата                     : Без точки перехода
Параметр матрицы формата                 : Выборочная
Идентификатор кодека                     : XVID
Идентификатор кодека/Подсказка           : XviD
Продолжительность                        : 21 м.
Битрейт                                  : 1041 Кбит/сек
Ширина                                   : 656 пикселей
Высота                                   : 368 пикселей
Соотношение сторон                       : 16:9
Частота кадров                           : 23,976 кадра/сек
Цветовое пространство                    : YUV
Субдискретизация насыщенности            : 4:2:0
Битовая глубина                          : 8 бит
Тип развёртки                            : Прогрессивная
Метод сжатия                             : С потерями
Бит/(Пиксели*Кадры)                      : 0.180
Размер потока                            : 159 Мбайт (79%)
Библиотека кодирования                   : XviD 63
Аудио #1
Идентификатор                            : 1
Формат                                   : MPEG Audio
Версия формата                           : Version 1
Профиль формата                          : Layer 3
Режим                                    : Joint stereo
Расширение режима                        : MS Stereo
Идентификатор кодека                     : 55
Идентификатор кодека/Подсказка           : MP3
Продолжительность                        : 21 м.
Вид битрейта                             : Постоянный
Битрейт                                  : 128 Кбит/сек
Каналы                                   : 2 канала
Частота                                  : 48,0 КГц
Метод сжатия                             : С потерями
Размер потока                            : 19,5 Мбайт (10%)
Выравнивание                             : Соединение по промежуткам
Продолжительность промежутка             : 42  мс. (1,00 видеокадр)
Время предзагрузки промежутка            : 504  мс.
Библиотека кодирования                   : LAME3.98r
Настройки программы                      : -m j -V 4 -q 0 -lowpass 17 -b 128
Аудио #2
Идентификатор                            : 2
Формат                                   : MPEG Audio
Версия формата                           : Version 1
Профиль формата                          : Layer 3
Режим                                    : Joint stereo
Расширение режима                        : MS Stereo
Идентификатор кодека                     : 55
Идентификатор кодека/Подсказка           : MP3
Продолжительность                        : 21 м.
Вид битрейта                             : Постоянный
Битрейт                                  : 128 Кбит/сек
Каналы                                   : 2 канала
Частота                                  : 48,0 КГц
Метод сжатия                             : С потерями
Размер потока                            : 19,5 Мбайт (10%)
Выравнивание                             : Соединение по промежуткам
Продолжительность промежутка             : 42  мс. (1,00 видеокадр)
Время предзагрузки промежутка            : 504  мс.

-

Внимание! Раздача ведётся путём добавления новых серий!

Внимание! Раздача ведётся путём добавления новых серий; при каждом добавлении создётся новый торрент. Чтобы начать докачку новой серии, пользователям необходимо сделать следующее:
(1) остановить скачивание,
(2) удалить старый торрент у себя из клиента (старые серии удалять не надо),
(3) скачать новый торрент и запустить его у себя в клиенте вместо старого, при этом указать клиенту путь в старую папку куда и должно происходить скачивание новых серий.
Ваш клиент при этом должен произвести хеширование (проверку) старой папки (если не производит сам - помогите ему сделать это), и будет докачивать только те серии которых у вас ещё нет. Старые серии при этом не удаляются, а продолжают раздаваться!
Eсли вы уже удалили старые серии, то предотвратить повторную закачку старых серий можно, отжав галочку в соответсвующих местах при запуске нового торрента.

-
-
Вне форума [Профиль] [ЛС]
Показать сообщения:    
Ответить на тему

Текущее время: Сегодня 15:47

Часовой пояс: GMT + 3



Вы не можете начинать темы
Вы не можете отвечать на сообщения
Вы не можете редактировать свои сообщения
Вы не можете удалять свои сообщения
Вы не можете голосовать в опросах
Вы не можете прикреплять файлы к сообщениям
Вы не можете скачивать файлы