Сегодня идет свободное скачивание без начисления Download

Polar Bear Cafe / Кафе «У Белого Медведя» [2012,TV, 45 из 50] HDTVRip 720p rus

Ответить на тему
 
Автор
Сообщение

UndegraundMen ®

Стаж: 4 года 9 месяцев

Сообщений: 26429

Торрент-статистика

Пост 23-Мар-2013 01:08

[Цитировать]

しろくまカフェ / Polar Bear Cafe / Кафе «У Белого Медведя»-
Жанр: Комедия, повседневность
Тип: TV-сериал
Продолжительность: 50 эп., 25 мин.
Дата премьеры / период выхода: c 05.04.2012 по 28.03.2013
Режиссер: Масухара Мицуюки
Автор оригинала: Хига Алоха
Производство/студия:

Качество видео: HDTVRip
Видео: AVC, 1280x720, 23,976 кадра/сек, ~1333 кбит/с
Аудио: AAC, 48 КГц, 2 ch, ~192 кбит/с Звук: Русский (закадровый, любительский одноголосый). Озвучка: Симбад
Тип субтитров: Отсутствуют.
Описание:
Простой канадский эмигрант Белый Медведь взял и открыл в японской глубинке небольшое кафе, где каждый мог выбрать кофе по вкусу и насладиться уютной обстановкой. Навыки американского бизнеса помогли новичку «встать на ноги», нанять симпатичную официантку Сасако и мягко, но однозначно отвести попытки этнических группировок взять заведение под контроль. После этого все успокоилось, и в кафе сложилась тесная компания: гражданин мира Пингвин, молодой Панда из китайской диаспоры, авторитетный Лама из Эквадора и другие уважаемые клиенты.
Вот так и потекли неспешные деньки в кафе «У Белого медведя», где люди (а герои аниме – такие же люди, как мы с вами) встречаются, беседуют, отдыхают душой, обсуждают и решают самые разные проблемы. Душевную атмосферу время от времени разбавляют шутки хозяина на жуткой смеси японского и английского (как правило, неудачные) и редкие явления его буйного родственничка Гризли. А в целом, «кафешный» жанр давно доказал, что больше всего нам нравится смотреть на отражение самих себя, и потому повседневность на экранах была, есть и будет самой популярной!
© Hollow, World Art

MediaInfo

Код:
Общее
Полное имя                               : R:\torrent\Polar Bear Cafe\Кафе у Белого Медведя - 01.mp4
Формат                                   : MPEG-4
Профиль формата                          : Base Media
Идентификатор кодека                     : isom
Размер файла                             : 271 Мбайт
Продолжительность                        : 24 м.
Режим общего битрейта                    : Переменный
Общий поток                              : 1529 Кбит/сек
Дата кодирования                         : UTC 2012-04-09 16:14:33
Дата пометки                             : UTC 2012-04-09 16:14:33
Видео
Идентификатор                            : 1
Формат                                   : AVC
Формат/Информация                        : Advanced Video Codec
Профиль формата                          : [url=mailto:High@L4.1]High@L4.1[/url]
Параметр CABAC формата                   : Да
Параметр ReFrames формата                : 4 кадра
Идентификатор кодека                     : avc1
Идентификатор кодека/Информация          : Advanced Video Coding
Продолжительность                        : 24 м.
Битрейт                                  : 1333 Кбит/сек
Максимальный битрейт                     : 10,6 Мбит/сек
Ширина                                   : 1280 пикселей
Высота                                   : 720 пикселей
Соотношение сторон                       : 16:9
Режим частоты кадров                     : Постоянный
Частота кадров                           : 23,976 кадра/сек
Цветовое пространство                    : YUV
Субдискретизация насыщенности            : 4:2:0
Битовая глубина                          : 8 бит
Тип развёртки                            : Прогрессивная
Бит/(Пиксели*Кадры)                      : 0.060
Размер потока                            : 236 Мбайт (87%)
Библиотека кодирования                   : x264 core 119 r2106 07efeb4
Настройки программы                      : cabac=1 / ref=3 / deblock=1:0:0 / analyse=0x3:0x113 / me=hex / subme=7 / psy=1 / psy_rd=1.00:0.00 / mixed_ref=1 / me_range=16 / chroma_me=1 / trellis=1 / 8x8dct=1 / cqm=0 / deadzone=21,11 / fast_pskip=1 / chroma_qp_offset=-2 / threads=12 / sliced_threads=0 / nr=0 / decimate=1 / interlaced=0 / bluray_compat=0 / constrained_intra=0 / bframes=3 / b_pyramid=2 / b_adapt=1 / b_bias=0 / direct=1 / weightb=1 / open_gop=0 / weightp=2 / keyint=250 / keyint_min=23 / scenecut=40 / intra_refresh=0 / rc_lookahead=40 / rc=crf / mbtree=1 / crf=19.5 / qcomp=0.60 / qpmin=0 / qpmax=69 / qpstep=4 / ip_ratio=1.40 / aq=1:1.00
Дата кодирования                         : UTC 2012-04-05 09:48:51
Дата пометки                             : UTC 2012-04-09 16:15:20
Аудио
Идентификатор                            : 2
Формат                                   : AAC
Формат/Информация                        : Advanced Audio Codec
Профиль формата                          : LC
Идентификатор кодека                     : 40
Продолжительность                        : 24 м.
Вид битрейта                             : Переменный
Битрейт                                  : 192 Кбит/сек
Максимальный битрейт                     : 195 Кбит/сек
Каналы                                   : 2 канала
Расположение каналов                     : Front: L R
Частота                                  : 48,0 КГц
Метод сжатия                             : С потерями
Задержка видео                           : 83 мс.
Размер потока                            : 34,0 Мбайт (13%)
Язык                                     : Английский
Дата кодирования                         : UTC 2012-04-09 16:15:11
Дата пометки                             : UTC 2012-04-09 16:15:20

Эпизоды:

1 Polar Bear`s Cafe
2 Everyone`s Cafe / Cafe`s Cherrry Blossom Viewing
3 Polar Bear Goes to the Zoo / Panda`s Problems
4 Obsessed with Smartphones / Super Fun Driving Lesson
5 Panda Gets Enthusiastic / Everyone`s Parfait
6 Panda`s Diet / Strive for it! Wild Panda
7 Mr. Handa`s Remodeling Plan / The Great Love Love Driving Operation
8 A Magazine Interview Comes By / Salmon Hunter: Mr. Grizzly
9 Rin Rin Deeply Moved! Panda`s House! / Mr. Penguin`s Proposal
10 Mr. Handa`s Group Blind Date? / Mr. Handa`s Group Blind Date!
11 Mr. Penguin`s Broken Heart / Panda`s Night Out
12 Panda, Tired of Boredom / Panda`s Advice Room for Troubles
13 Tanabata Decorations / Panda`s Wish
14 Enthusiastic Polar Bear / Let`s Go to the Beach!
15 Weeding in the Summer / Mr. Penguin`s Romance
16 Mr. Grizzly Goes On an Adventure / A Strange Restaurant
17 Let`s Go Camping! / Rin Rin and the High School Girl
18 The Cafe`s Ghost Stories / Panda Runs Away from Home
19 There Are Many Kinds of Penguins / What Is Baisen!?
20 The Ideal Single Living / Summer Festival
21 Panda Is No Longer a Panda / Mei Mei`s Prince
22 Sales Penguin / Mr. Penguin Picnic
23 Mr. Handa`s Discussion / Panda Mama`s Daily Life
24 Panda`s Apprenticeship / A Sports Day Filled with Animals
25 Mr. Penguin`s Hobbies / Their Childhood Days
26 The New Panda / Reunion at the Grizzly Bar
27 Animal Field Baseball Part 1 / Animal Field Baseball Part 2
28 Panda`s Apology! / Rin Rin Welcomed!
29 Panda`s New Part-Time Job! / Mr. Penguin Goes Flying!
30 Halloween! / Llama Day!
31 Mr. Penguin`s Dilemma! / Idol: Yama Arashi!
32 The Cafe Yard! / Sales Penguins` Sales!
33 Panda Corner Contest! / Coffee Roaster Masaki
34 Wolf`s Occupation Change / Mr. Penguin`s New Love!
35 Sloth Wants To Work! / Mr. Handa`s Present
36 Grizzly`s Hibernation Preparations! / Grizzly`s Hibernation!
37 Christmas Planning! / Christmas Trouble!
38 Big Cleaning at the Cafe / For Whom Does the Bell Toll
39 The Animals` Hidden Talent Competition! / New Year`s Guest
40 The Hammock Sea / Panda Mama`s Gardening
41 Scattering Beans With Everyone / The Cafe in the Afternoon
42 Polar Bear`s Insomnia / Mr. Grizzly`s First Love
43 Pun Cafe! / Mr. Full-Time Panda, Mr. Llama, and Rin Rin!
44 The Everyday Zoo! / The Zoo in the Rain
45 Rin Rin and Mei Mei`s Super Exciting Plan / Smelt Fishing
46 Doll Festival / The Animal Doctor
47 South Pole Squad Penguinger / Even More, What is Roasting!?
48 Sloth`s Trip / I Became a Doll / White Day
Торрент обновлен.Ссылки:
Ani-DB ::: World Art
Скриншоты:
           
           
Время раздачи: По мере возможности
Вне форума [Профиль] [ЛС]
Показать сообщения:    
Ответить на тему

Текущее время: Сегодня 01:58

Часовой пояс: GMT + 3



Вы не можете начинать темы
Вы не можете отвечать на сообщения
Вы не можете редактировать свои сообщения
Вы не можете удалять свои сообщения
Вы не можете голосовать в опросах
Вы не можете прикреплять файлы к сообщениям
Вы не можете скачивать файлы