Сегодня идет свободное скачивание без начисления Download

Белый воротничок / White Collar [Сезон 4, полный , 16 серий](2012) WEB-DLRip [NewStudio]

Ответить на тему
 
Автор
Сообщение

UndegraundMen ®

Стаж: 5 лет 3 месяца

Сообщений: 25871

Торрент-статистика

Пост 22-Мар-2013 07:58

[Цитировать]

Белый воротничок / White Collar [Сезон 4, полный 16 серий] (2012) WEB-DLRip- Русское название: Белый воротничок
Оригинальное название: White Collar
Год выпуска: 2012
Выпущено: США, Fox Television Studios, Jeff Eastin & Warrior George Productions
Жанр: Драма, Детектив, Комедия
Перевод: Многоголосый закадровый, профессиональный / Двухголоый закадровый, профессиональный
Вид субтитров: Отсутствуют

Режиссер: Джефф Истен
Актеры: Мэтт Бомер, Тим ДиКей, Уилли Гарсон, Тиффани Тиссен, Шариф Аткинс, Марша Томасон, Хилари Бертон, Дайэнн Кэррол, Натали Моралес, Джеймс Ребхорн
Описание фильма:
Сериал рассказывает о сотрудничестве гениального мошенника и агента ФБР. Нил Кэффри, невероятно обаятельный преступный ум, наконец-то был пойман своим извечным врагом, отличным агентом государственной безопасности Питером Стоуксом. Когда Нил бежит из тюрьмы, чтобы найти свою пропавшую любовь, Питер ловит его еще раз. Нил предлагает ему не торопиться с отправкой в тюрьму, и рассмотреть возможность сотрудничества. Ведь Нил мог бы помочь словить самых “элитных” преступников, “белых воротничков” преступного мира. Питер понимает, что интуиция и преступный опыт Нила, которых нет у законопослушного агента, могут стать хорошим подспорьем в борьбе с криминалом.
Продолжительность: 00:43:02
Качество видео: WEB-DLRip
Видеокодек: Xvid
Битрейт видео: 1029 Кбит/с
Размер кадра: 624x352
Audio #1: 48 kHz, MPEG Layer 3, 2 ch, ~128.00 kbps avg | Русский |
Audio #2: 48 kHz, MPEG Layer 3, 2 ch, ~128.00 kbps avg | Русский |
Audio #3: 48 kHz, MPEG Layer 3, 2 ch, ~128.00 kbps avg | Английский |Внимание! Раздача ведётся путём добавления новых серий

Внимание! Раздача ведётся путём добавления новых серий. Описание обновления торрента:

Внимание! Раздача ведётся путём добавления новых серий; при каждом добавлении создётся новый торрент. Чтобы начать докачку новой серии, пользователям необходимо сделать следующее:
(1) остановить скачивание,
(2) удалить старый торрент у себя из клиента (старые серии удалять не надо),
(3) скачать новый торрент и запустить его у себя в клиенте вместо старого, при этом указать клиенту путь в старую папку куда и должно происходить скачивание новых серий.
Ваш клиент при этом должен произвести хеширование (проверку) старой папки (если не производит сам - помогите ему сделать это), и будет докачивать только те серии которых у вас ещё нет. Старые серии при этом не удаляются, а продолжают раздаваться!
Eсли вы уже удалили старые серии, то предотвратить повторную закачку старых серий можно, отжав галочку в соответсвующих местах при запуске нового торрента. По возможности, желательно не удалять старые серии как можно дольше чтобы релизёр не столько продолжал раздавать старые серии, а смог сконцентрироваться на новых

Эпизоды

01. Разыскивается / Wanted
02. Разыскивается и особо опасен / Most Wanted
03. Снижение отдачи / Diminishing Returns
04. Прощальный выстрел / Parting Shots
05. Воровская честь / Honor Among Thieves
06. Кризис личности / Identity Crisis
07. Компрометирующие положение / Compromising Positions
08. Древняя история / Ancient History
09. Долой перчатки / Gloves Off
10. Личная заинтересованность / Vested Interest

MediaInfo

Код:
Общее
Полное имя                               : D:\Раздачи\Belyj.vorotnichok.2012.WEB-DLRip\Belyj.vorotnichok.01.seryja.2012.WEB-DLRip.avi
Формат                                   : AVI
Формат/Информация                        : Audio Video Interleave
Размер файла                             : 225 Мбайт
Продолжительность                        : 42 м.
Общий поток                              : 740 Кбит/сек
Программа кодирования                    : VirtualDubMod 1.5.10.2 (build 2540/release)
Библиотека кодирования                   : VirtualDubMod build 2540/release
Видео
Идентификатор                            : 0
Формат                                   : MPEG-4 Visual
Профиль формата                          : Advanced Simple@L5
Параметр BVOP формата                    : 2
Параметр QPel формата                    : Нет
Параметр GMC формата                     : Без точки перехода
Параметр матрицы формата                 : Default (MPEG)
Идентификатор кодека                     : XVID
Идентификатор кодека/Подсказка           : XviD
Продолжительность                        : 42 м.
Битрейт                                  : 1029 Кбит/сек
Ширина                                   : 624 пикселя
Высота                                   : 352 пикселя
Соотношение сторон                       : 16:9
Частота кадров                           : 23,976 кадра/сек
Цветовое пространство                    : YUV
Субдискретизация насыщенности            : 4:2:0
Битовая глубина                          : 8 бит
Тип развёртки                            : Прогрессивная
Метод сжатия                             : С потерями
Бит/(Пиксели*Кадры)                      : 0.060
Размер потока                            : 95,7 Мбайт (42%)
Библиотека кодирования                   : XviD 64
Аудио #1
Идентификатор                            : 1
Формат                                   : MPEG Audio
Версия формата                           : Version 1
Профиль формата                          : Layer 3
Режим                                    : Joint stereo
Расширение режима                        : MS Stereo
Идентификатор кодека                     : 55
Идентификатор кодека/Подсказка           : MP3
Продолжительность                        : 42 м.
Вид битрейта                             : Постоянный
Битрейт                                  : 128 Кбит/сек
Каналы                                   : 2 канала
Частота                                  : 48,0 КГц
Метод сжатия                             : С потерями
Размер потока                            : 39,0 Мбайт (17%)
Выравнивание                             : Соединение по промежуткам
Аудио #2
Идентификатор                            : 2
Формат                                   : MPEG Audio
Версия формата                           : Version 1
Профиль формата                          : Layer 3
Режим                                    : Joint stereo
Расширение режима                        : MS Stereo
Идентификатор кодека                     : 55
Идентификатор кодека/Подсказка           : MP3
Продолжительность                        : 42 м.
Вид битрейта                             : Постоянный
Битрейт                                  : 128 Кбит/сек
Каналы                                   : 2 канала
Частота                                  : 48,0 КГц
Метод сжатия                             : С потерями
Размер потока                            : 39,0 Мбайт (17%)
Выравнивание                             : Соединение по промежуткам
Аудио #3
Идентификатор                            : 3
Формат                                   : MPEG Audio
Версия формата                           : Version 1
Профиль формата                          : Layer 3
Режим                                    : Joint stereo
Расширение режима                        : MS Stereo
Идентификатор кодека                     : 55
Идентификатор кодека/Подсказка           : MP3
Продолжительность                        : 42 м.
Вид битрейта                             : Постоянный
Битрейт                                  : 128 Кбит/сек
Каналы                                   : 2 канала
Частота                                  : 48,0 КГц
Метод сжатия                             : С потерями
Размер потока                            : 39,0 Мбайт (17%)
Выравнивание                             : Соединение по промежуткам
Скриншоты:          
Вне форума [Профиль] [ЛС]
Показать сообщения:    
Ответить на тему

Текущее время: Сегодня 06:20

Часовой пояс: GMT + 3



Вы не можете начинать темы
Вы не можете отвечать на сообщения
Вы не можете редактировать свои сообщения
Вы не можете удалять свои сообщения
Вы не можете голосовать в опросах
Вы не можете прикреплять файлы к сообщениям
Вы не можете скачивать файлы