Сегодня идет свободное скачивание без начисления Download

Дурман (Косяки) / Weeds (полный 4 сезон) (2008) HDRip (Fox Life)

Ответить на тему
 
Автор
Сообщение

UndegraundMen ®

Стаж: 5 лет 3 месяца

Сообщений: 25871

Торрент-статистика

Пост 21-Мар-2013 15:11

[Цитировать]

Дурман / Косяки / Weeds«Putting the Herb in Suburb»-
Русское название: Дурман (Косяки)
Оригинальное название: Weeds
Год выпуска: 2008
Перевод: Профессиональный (многоголосый, закадровый) - Fox Life
Жанр: Драма, Комедия, Криминал
Режиссер: Крейг Зиск, Майкл Прессман, Скотт Эллис, Пол Фейг, Лев Л. Спиро, Джули Энн Робинсон, Майкл Трим, Таккер Гейтс, Брайан Дэннели
Актеры: Мэри-Луиз Паркер, Хантер Пэрриш, Александр Гулд, Кевин Нилон, Джастин Кирк, Элизабет Перкинс, Элли Грант, Энди Милдер, Романи Малко, Тони Патано и др.
Описание фильма:
Речь в сериале идет не о борьбе с наркотиками и о том, как же вредна наркомания; здесь представлен взгляд совершенно с другой стороны — Нэнси живет в том самом американском сабарбе — предместье, где у каждого свой «скелет в шкафу». Она — вдова с двумя весьма оригинальными детьми. Старший, Сайлас, мальчик умный и интересный, с постоянными проблемами на любовном фронте, младший, Шейн — это вообще отдельная песня, за мамой он ходит постоянно и просит дать ему антидепрессанты, причем в больших количествах.
Но вернемся к маме — Нэнси не нашла никакого другого способа прокормить семью, как начать торговать марихуаной, которую ей подбрасывают местные дилеры — семейка афроамериканцев, где всем заправляет Хейлия, а помогает весьма неравнодушный к Нэнси парень Конрад.
После появления собственного торговца марихуаной, у Нэнси начали отовариваться все ее соседи — адвокаты, финансисты и прочие личности. В общем, можете себе представить эту картину, здорово приправленную черным юмором, замечательными комедийными вставками и трагикомическими поворотам.

Продолжительность: ~ 00:28:00 серия
Качество: HDRip
Формат: AVI
Видео кодек: XviD
Аудио кодек: AC3
Видео: 720x400 (16:9), 23.976 fps, ~1300 kbps, ~0.190 bit/pixel
Аудио Rus: 48 kHz, 2 ch, 192 kbps |Fox Life|
Аудио Eng: 48 kHz, 2 ch, 192 kbps |Original|
Сэмпл:

Тех.информация

Общее
Полное имя : \\Pc-2\H\фильмы\Weeds.s04.HDRip.Rus.Eng\Weeds.s04e04.HDRip.Rus.Eng.avi
Формат : AVI
Формат/Информация : Audio Video Interleave
Размер файла : 340 Мбайт
Продолжительность : 28 м.
Общий поток : 1682 Кбит/сек
Программа кодирования : VirtualDubMod 1.5.10.2 (build 2540/release)
Библиотека кодирования : VirtualDubMod build 2540/release
Видео
Идентификатор : 0
Формат : MPEG-4 Visual
Профиль формата : Advanced Simple@L5
Параметр BVOP формата : 1
Параметр QPel формата : Нет
Параметр GMC формата : Без точки перехода
Параметр матрицы формата : Выборочная
Идентификатор кодека : XVID
Идентификатор кодека/Подсказка : XviD
Продолжительность : 28 м.
Битрейт : 1284 Кбит/сек
Ширина : 720 пикселей
Высота : 400 пикселей
Соотношение сторон : 16:9
Частота кадров : 23,976 кадра/сек
Цветовое пространство : YUV
Субдискретизация насыщенности : 4:2:0
Битовая глубина : 8 бит
Тип развёртки : Прогрессивная
Метод сжатия : С потерями
Бит/(Пиксели*Кадры) : 0.186
Размер потока : 260 Мбайт (76%)
Библиотека кодирования : XviD 65
Аудио #1
Идентификатор : 1
Формат : AC-3
Формат/Информация : Audio Coding 3
Расширение режима : CM (complete main)
Параметр Endianness формата : Big
Идентификатор кодека : 2000
Продолжительность : 28 м.
Вид битрейта : Постоянный
Битрейт : 192 Кбит/сек
Каналы : 2 канала
Расположение каналов : Front: L R
Частота : 48,0 КГц
Битовая глубина : 16 бит
Метод сжатия : С потерями
Размер потока : 38,8 Мбайт (11%)
Выравнивание : Разделение по промежуткам
Продолжительность промежутка : 42 мс. (1,00 видеокадр)
Время предзагрузки промежутка : 500 мс.
Аудио #2
Идентификатор : 2
Формат : AC-3
Формат/Информация : Audio Coding 3
Расширение режима : CM (complete main)
Параметр Endianness формата : Big
Идентификатор кодека : 2000
Продолжительность : 28 м.
Вид битрейта : Постоянный
Битрейт : 192 Кбит/сек
Каналы : 2 канала
Расположение каналов : Front: L R
Частота : 48,0 КГц
Битовая глубина : 16 бит
Метод сжатия : С потерями
Размер потока : 38,8 Мбайт (11%)
Выравнивание : Разделение по промежуткам
Продолжительность промежутка : 42 мс. (1,00 видеокадр)
Время предзагрузки промежутка : 500 мс.

Список серий

01.Wonderful
02.Machetes Up Top
03.Su-Su-Sucio
04.Super Lucky Happy
05.Van Nuys
06.A Modest Proposal
07.Where the Sidewalk Ends
08.A Distinctive Horn
09.Suck 'n' Spit
10.Perro Insano
11.Ducks and Tigers
12.Glue
13.All About My Mom
       
       
Вне форума [Профиль] [ЛС]

Dracula

Стаж: 4 года 7 месяцев

Сообщений: 10632

Торрент-статистика

Пост 21-Мар-2013 16:29 (спустя 1 час 18 минут)

Топик был перенесен из форума Безопасность в форум Зарубежные сериалы


Koralina
 
Показать сообщения:    
Ответить на тему

Текущее время: Сегодня 16:02

Часовой пояс: GMT + 3



Вы не можете начинать темы
Вы не можете отвечать на сообщения
Вы не можете редактировать свои сообщения
Вы не можете удалять свои сообщения
Вы не можете голосовать в опросах
Вы не можете прикреплять файлы к сообщениям
Вы не можете скачивать файлы