Сегодня идет свободное скачивание без начисления Download

Пираты Карибского моря: Проклятие Черной жемчужины / Pirates of the Caribbean: The Curse of the Black Pearl (2003) 2xDVD9, 1xDVD5

Ответить на тему
 
Автор
Сообщение

Omen ®

Стаж: 4 года 10 месяцев

Сообщений: 190643

Торрент-статистика

Пост 15-Мар-2013 17:10

[Цитировать]

Пираты Карибского моря: Проклятие Черной жемчужины
Pirates of the Caribbean: The Curse of the Black Pearl (2003) DVD9

«Over 3000 Islands of Paradise -- For Some it's A Blessing -- For Others... It's A Curse.»
- Русское название: Пираты Карибского моря: Проклятие Черной жемчужины
Оригинальное название: Pirates of the Caribbean: The Curse of the Black Pearl
Год выпуска: 2003
Производство: США
Жанр: Боевик, Фэнтези, Приключения
Перевод: Дублированный [лицензия]
Язык субтитров: Русские, английские, украинские, латышские, литовские, эстонские, польские, турецкие, иврит
Вид субтитров: Вшитые отключаемые-Дата мировой премьеры: 28 июня 2003
Дата российской премьеры: 20 августа 2003, «Каскад»
Дата выхода DVD релиза: 26 апреля 2011, «Уолт Дисней Компани СНГ»-Режиссер: Гор Вербински
Продюсеры: Джерри Брукхаймер, Пол Дисон, Брюс Хендрикс
Актеры: Джонни Депп, Джеффри Раш, Орландо Блум, Кира Найтли, Джек Девенпорт, Джонатан Прайс, Ли Аренберг, Маккензи Крук, Дэмиан О’Хейр, Джиллз Нью-Описание фильма:
Жизнь харизматичного авантюриста, капитана Джека Воробья, полная увлекательных приключений, резко меняется, когда его заклятый враг — капитан Барбосса — похищает корабль Джека, Черную Жемчужину, а затем нападает на Порт Ройал и крадет прекрасную дочь губернатора, Элизабет Свонн.
Друг детства Элизабет, Уилл Тернер, вместе с Джеком возглавляет спасательную экспедицию на самом быстром корабле Британии, в попытке вызволить девушку из плена и заодно отобрать у злодея Черную Жемчужину. Вслед за этой парочкой отправляется амбициозный коммодор Норрингтон, который к тому же числится женихом Элизабет.
Однако Уилл не знает, что над Барбоссой висит вечное проклятие, при лунном свете превращающее его с командой в живых скелетов. Проклятье будет снято лишь тогда, когда украденное золото Ацтеков будет возвращено пиратами на старое место.- -Disc 1:
Продолжительность: 02:17:19
Качество видео: DVD9
Видео: MPEG-2, 720x576@1024x576 (PAL 16:9), ~5267 Кбит/сек
Аудио 1: AC3 5.1, 384 Кбит/сек [Русский]
Аудио 2: AC3 5.1, 384 Кбит/сек [Польский]
Аудио 3: AC3 5.1, 384 Кбит/сек [Турецкий]
Аудио 4: AC3 5.1, 448 Кбит/сек [Английский]
Аудио 5: AC3 1.0, 96 Кбит/сек [Английский (дополнительные материалы)]

DVDInfo:

Title: Disc 1
Size: 7.19 Gb ( 7 544 166,00 KBytes ) - DVD-9
Enabled regions: 1, 2, 3, 4, 5, 6, 7, 8
VTS_01 :
Play Length: 02:17:19+00:00:38+00:01:46+00:01:56+00:03:39+00:00:33+00:00:42+00:00:39+00:01:34+00:00:34+00:01:07+00:00:48+{00:02:08}+{00:03:08}+{00:01:17}+{00:01:03}+{00:03:35}+{00:02:13}+{00:08:05}+{00:04:48}+{00:01:04}+{00:02:38}+{00:02:29}+00:07:17+00:04:51+00:03:11+00:09:48+00:06:22+{00:07:48}+{00:00:38}+{00:01:46}+{00:01:56}+{00:03:39}+{00:00:33}+{00:00:42}+{00:00:39}+{00:01:34}+{00:00:34}+{00:01:07}+{00:00:48}+{00:02:08}+{00:03:08}+{00:01:17}+{00:01:03}+{00:03:35}+{00:02:13}+{00:08:05}+{00:04:48}+{00:01:04}+{00:02:38}+{00:02:29}+{00:07:17}+{00:04:51}+{00:03:11}+{00:09:48}+{00:06:22}+{00:07:48}+00:00:00
Video: PAL 16:9 (720x576) VBR, Auto Letterboxed
VTS_02 :
Play Length: 00:00:09
Video: PAL 16:9 (720x576) VBR, Auto Pan&Scan
Audio:
  • Not specified (Dolby AC3, 2 ch)
    VTS_03 :
    Play Length: 00:00:03+00:00:03+00:00:03+00:00:03+00:00:00
    Video: PAL 16:9 (720x576) VBR, Auto Pan&Scan
    Audio:
  • Not specified (Dolby AC3, 2 ch)
    VTS_04 :
    Play Length: 00:00:09
    Video: PAL 16:9 (720x576) VBR, Auto Pan&Scan
    Audio:
  • Not specified (Dolby AC3, 6 ch)
    VTS_05 :
    Play Length: 00:00:00
    Video: PAL 16:9 (720x576) VBR, Auto Pan&Scan
    VTS_06 :
    Play Length: 00:00:03+00:00:03+00:00:03+00:00:00+00:00:00+00:00:06+00:00:00+00:00:00+00:00:00+00:00:00
    Video: PAL 16:9 (720x576) VBR, Auto Letterboxed
    Audio:
  • Not specified (Dolby AC3, 2 ch)
    VTS_07 :
    Play Length: 00:00:00
    Video: PAL 4:3 (720x576) VBR
    VTS_08 :
    Play Length: 00:00:33
    Video: PAL 4:3 (720x576) VBR
    Audio:
  • English (Dolby AC3, 2 ch)
    Subtitles:
  • Espanol
    * Menus Information *
    VIDEO_TS Menu
    Video:
  • PAL 16:9 (720x576) VBR
  • Auto Pan&Scan
    English Language Unit :
  • Title Menu
    VTS_01 Menu
    Video:
  • PAL 16:9 (720x576) VBR
  • Auto Pan&Scan
    Audio:
  • Not specified (Dolby AC3, 2 ch)
    English Language Unit :
  • Root Menu
  • Subpicture Menu
    VTS_02 Menu
    Video:
  • PAL 16:9 (720x576) VBR
  • Auto Pan&Scan
    Audio:
  • Not specified (Dolby AC3, 2 ch)
    English Language Unit :
  • Root Menu
  • Subpicture Menu
  • Audio Menu
    VTS_03 Menu
    Video:
  • PAL 16:9 (720x576) VBR
  • Auto Pan&Scan
    English Language Unit :
  • Root Menu
    VTS_04 Menu
    Video:
  • PAL 16:9 (720x576) VBR
  • Auto Pan&Scan
    English Language Unit :
  • Root Menu
    VTS_05 Menu
    Video:
  • PAL 16:9 (720x576) VBR
  • Auto Pan&Scan
    English Language Unit :
  • Root Menu
    VTS_06 Menu
    Video:
  • PAL 16:9 (720x576) VBR
  • Auto Pan&Scan
    English Language Unit :
  • Root Menu
    VTS_07 Menu
    Video:
  • PAL 16:9 (720x576) VBR
  • Auto Pan&Scan
    English Language Unit :
  • Root Menu
    VTS_08 Menu
    Video:
  • PAL 16:9 (720x576) VBR
  • Auto Pan&Scan
    English Language Unit :
  • Root Menu

MediaInfo:

Общее
Полное имя : D:\ФИЛЬМЫ\Pirates of the Caribbean The Curse of the Black Pearl (2003) 2xDVD9, 1xDVD5\Disc 1\VIDEO_TS\VTS_01_1.VOB
Формат : MPEG-PS
Размер файла : 1024 Мбайт
Продолжительность : 19 м.
Общий поток : 7300 Кбит/сек
Видео
Идентификатор : 224 (0xE0)
Формат : MPEG Video
Версия формата : Version 2
Профиль формата : Main@Main
Параметр BVOP формата : Да
Параметр матрицы формата : Выборочная
Параметр GOP формата : Variable
Продолжительность : 19 м.
Битрейт : 5267 Кбит/сек
Максимальный битрейт : 6000 Кбит/сек
Ширина : 720 пикселей
Высота : 576 пикселей
Соотношение сторон : 16:9
Частота кадров : 25,000 кадров/сек
Стандарт вещания : PAL
Цветовое пространство : YUV
Субдискретизация насыщенности : 4:2:0
Битовая глубина : 8 бит
Тип развёртки : Прогрессивная
Порядок развёртки : Верхнее поле первое
Метод сжатия : С потерями
Бит/(Пиксели*Кадры) : 0.508
TimeCode_FirstFrame : 01:00:00:00
TimeCode_Source : Group of pictures header
Размер потока : 739 Мбайт (72%)
Аудио #1
Идентификатор : 189 (0xBD)-128 (0x80)
Формат : AC-3
Формат/Информация : Audio Coding 3
Расширение режима : CM (complete main)
Параметр Endianness формата : Big
Режим смешивания : DVD-Video
Продолжительность : 19 м.
Вид битрейта : Постоянный
Битрейт : 448 Кбит/сек
Каналы : 6 каналов
Расположение каналов : Front: L C R, Side: L R, LFE
Частота : 48,0 КГц
Битовая глубина : 16 бит
Метод сжатия : С потерями
Размер потока : 62,8 Мбайт (6%)
Аудио #2
Идентификатор : 189 (0xBD)-129 (0x81)
Формат : AC-3
Формат/Информация : Audio Coding 3
Расширение режима : CM (complete main)
Параметр Endianness формата : Big
Режим смешивания : DVD-Video
Продолжительность : 19 м.
Вид битрейта : Постоянный
Битрейт : 384 Кбит/сек
Каналы : 6 каналов
Расположение каналов : Front: L C R, Side: L R, LFE
Частота : 48,0 КГц
Битовая глубина : 16 бит
Метод сжатия : С потерями
Размер потока : 53,8 Мбайт (5%)
Аудио #3
Идентификатор : 189 (0xBD)-130 (0x82)
Формат : AC-3
Формат/Информация : Audio Coding 3
Расширение режима : CM (complete main)
Параметр Endianness формата : Big
Режим смешивания : DVD-Video
Продолжительность : 19 м.
Вид битрейта : Постоянный
Битрейт : 384 Кбит/сек
Каналы : 6 каналов
Расположение каналов : Front: L C R, Side: L R, LFE
Частота : 48,0 КГц
Битовая глубина : 16 бит
Метод сжатия : С потерями
Размер потока : 53,8 Мбайт (5%)
Аудио #4
Идентификатор : 189 (0xBD)-131 (0x83)
Формат : AC-3
Формат/Информация : Audio Coding 3
Расширение режима : CM (complete main)
Параметр Endianness формата : Big
Режим смешивания : DVD-Video
Продолжительность : 19 м.
Вид битрейта : Постоянный
Битрейт : 384 Кбит/сек
Каналы : 6 каналов
Расположение каналов : Front: L C R, Side: L R, LFE
Частота : 48,0 КГц
Битовая глубина : 16 бит
Метод сжатия : С потерями
Размер потока : 53,8 Мбайт (5%)
Аудио #5
Идентификатор : 189 (0xBD)-132 (0x84)
Формат : AC-3
Формат/Информация : Audio Coding 3
Расширение режима : CM (complete main)
Параметр Endianness формата : Big
Режим смешивания : DVD-Video
Продолжительность : 19 м.
Вид битрейта : Постоянный
Битрейт : 96,0 Кбит/сек
Каналы : 1 канал
Расположение каналов : Front: C
Частота : 48,0 КГц
Битовая глубина : 16 бит
Метод сжатия : С потерями
Размер потока : 13,5 Мбайт (1%)
Аудио #6
Идентификатор : 189 (0xBD)-133 (0x85)
Формат : AC-3
Формат/Информация : Audio Coding 3
Расширение режима : CM (complete main)
Параметр Endianness формата : Big
Режим смешивания : DVD-Video
Продолжительность : 19 м.
Вид битрейта : Постоянный
Битрейт : 96,0 Кбит/сек
Каналы : 1 канал
Расположение каналов : Front: C
Частота : 48,0 КГц
Битовая глубина : 16 бит
Метод сжатия : С потерями
Размер потока : 13,5 Мбайт (1%)
Аудио #7
Идентификатор : 189 (0xBD)-134 (0x86)
Формат : AC-3
Формат/Информация : Audio Coding 3
Расширение режима : CM (complete main)
Параметр Endianness формата : Big
Режим смешивания : DVD-Video
Продолжительность : 19 м.
Вид битрейта : Постоянный
Битрейт : 96,0 Кбит/сек
Каналы : 1 канал
Расположение каналов : Front: C
Частота : 48,0 КГц
Битовая глубина : 16 бит
Метод сжатия : С потерями
Размер потока : 13,5 Мбайт (1%)
Текст #1
Идентификатор : 189 (0xBD)-40 (0x28)
Формат : RLE
Формат/Информация : Run-length encoding
Режим смешивания : DVD-Video
Текст #2
Идентификатор : 189 (0xBD)-41 (0x29)
Формат : RLE
Формат/Информация : Run-length encoding
Режим смешивания : DVD-Video
Текст #3
Идентификатор : 189 (0xBD)-42 (0x2A)
Формат : RLE
Формат/Информация : Run-length encoding
Режим смешивания : DVD-Video
Текст #4
Идентификатор : 189 (0xBD)-46 (0x2E)
Формат : RLE
Формат/Информация : Run-length encoding
Режим смешивания : DVD-Video
Текст #5
Идентификатор : 189 (0xBD)-47 (0x2F)
Формат : RLE
Формат/Информация : Run-length encoding
Режим смешивания : DVD-Video
Текст #6
Идентификатор : 189 (0xBD)-48 (0x30)
Формат : RLE
Формат/Информация : Run-length encoding
Режим смешивания : DVD-Video
Меню

Дополнительная информация:

• Аудио-комментарии

Скриншоты меню:

             
Скриншоты:
         
-

Пираты Карибского моря: Проклятие Черной жемчужины / Pirates of the Caribbean: The Curse of the Black Pearl (2003) [Дополнительные материалы] DVD9

Пираты Карибского моря: Проклятие Черной жемчужины / Pirates of the Caribbean: The Curse of the Black Pearl (2003) [Дополнительные материалы] DVD9
«Over 3000 Islands of Paradise -- For Some it's A Blessing -- For Others... It's A Curse.»
-Дополнительные материалы к фильму:
• Морская сага |00:38:15|
• Чудеса на съемочной площадке |00:20:51|
• Дневники |00:04:19| |00:09:42| |00:11:04|
• Под палубой |00:22:10|
• Коллекция смешных дублей |00:03:13|
• Удаленные сцены |00:19:16|
• Прогрессия сцены |00:06:36|
• Галерея |00:16:20|
• Пираты в парках |00:18:20|
Комментарий: Английский
Субтитры: Вшитые, отключаемые
Язык субтитров: Русские, английские, польские, турецкие, иврит
Disc 2:
Общая продолжительность: 01:16:31
Качество видео: DVD9
Видео: MPEG-1, 720x576@768x576 (PAL 4:3), ~1176 Кбит/сек
Аудио : AC3 2.0, 192 Кбит/сек [Английский]

DVDInfo:

Title: Disc 2
Size: 6.91 Gb ( 7 245 602,00 KBytes ) - DVD-9
Enabled regions: 1, 2, 3, 4, 5, 6, 7, 8
VTS_01 :
Play Length: 00:00:00+00:00:00+{00:00:00}+00:16:36+00:00:04+00:02:16+00:02:33+00:03:35+00:00:04+00:04:08+00:04:08+00:04:08+00:03:20+00:00:04+00:03:11+00:02:09
Video: PAL 4:3 (720x576) VBR
Audio:
  • Not specified (Dolby AC3, 2 ch)
    Subtitles:
  • Not specified
    VTS_02 :
    Play Length: 00:00:14
    Video: PAL 4:3 (720x576) VBR
    Audio:
  • Not specified (Dolby AC3, 2 ch)
    VTS_03 :
    Play Length: 00:38:15+00:00:40+00:03:16+00:04:45+00:04:52+00:04:21+00:05:09+00:06:32+00:06:21+00:02:20
    Video: PAL 4:3 (720x576) VBR
    Audio:
  • English (Dolby AC3, 2 ch)
    Subtitles:
  • Polish
  • Turkish
  • Russian
  • Hebrew
    VTS_04 :
    Play Length: 00:20:51+00:04:52+00:03:28+00:04:08+00:03:59+00:04:23
    Video: PAL 4:3 (720x576) VBR
    Audio:
  • English (Dolby AC3, 2 ch)
    Subtitles:
  • Polish
  • Turkish
  • Russian
  • Hebrew
    VTS_05 :
    Play Length: 00:04:19+00:09:42+00:11:04
    Video: PAL 4:3 (720x576) VBR
    Audio:
  • English (Dolby AC3, 2 ch)
    Subtitles:
  • Polish
  • Turkish
  • Russian
  • Hebrew
    VTS_06 :
    Play Length: 00:00:00+00:00:04+00:03:24+00:00:21+00:00:20+00:00:03+00:00:10+00:00:24+00:00:05+00:00:05+00:00:04+00:00:10+00:00:32+00:00:03+00:00:03+00:00:04+00:00:07+00:00:07+00:00:20+00:00:06+00:00:04+00:00:09+00:00:31+00:00:05+00:00:04+00:00:16+00:00:28+00:00:11+00:00:20+00:00:03+00:00:09+00:00:10+00:00:04+00:00:10+00:02:18+00:02:18+00:00:00+00:00:00+{00:00:00}
    Video: PAL 4:3 (720x576) VBR
    Audio:
  • English (Dolby AC3, 2 ch)
    VTS_07 :
    Play Length: 00:22:10+00:01:19+00:01:32+00:01:12+00:00:42+00:01:30+00:00:51+00:01:15+00:00:47+00:01:01+00:01:24+00:00:51+00:00:55+00:01:52+00:01:25+00:02:09+00:02:31+00:02:59+00:01:18+00:01:55+00:01:30+00:01:39+00:01:38+00:01:29+00:01:37+00:02:09+00:03:06+00:02:05+00:02:05
    Video: PAL 4:3 (720x576) VBR
    Audio:
  • English (Dolby AC3, 2 ch)
    Subtitles:
  • Polish
  • Turkish
  • Russian
  • Hebrew
    VTS_08 :
    Play Length: 00:02:12+00:00:05+00:00:04+00:00:00
    Video: PAL 4:3 (720x576) VBR
    Audio:
  • English (Dolby AC3, 2 ch)
    Subtitles:
  • Not specified
  • Polish
  • Turkish
  • Russian
  • Hebrew
    VTS_09 :
    Play Length: 00:03:13
    Video: PAL 4:3 (720x576) VBR
    Audio:
  • English (Dolby AC3, 2 ch)
    Subtitles:
  • Polish
  • Turkish
  • Russian
  • Hebrew
    VTS_10 :
    Play Length: 00:19:16+00:00:43+00:00:35+00:01:00+00:00:36+00:01:53+00:00:24+00:00:34+00:00:33+00:01:09+00:00:44+00:01:43+00:02:09+00:02:08+00:01:05+00:00:51+00:00:31+00:01:03+00:00:39+00:00:54
    Video: PAL 4:3 (720x576) VBR
    Audio:
  • English (Dolby AC3, 2 ch)
    Subtitles:
  • Polish
  • Turkish
  • Russian
  • Hebrew
    VTS_11 :
    Play Length: 00:06:36
    Video: PAL 4:3 (720x576) VBR
    Audio:
  • English (Dolby AC3, 2 ch)
    Subtitles:
  • Polish
  • Turkish
  • Russian
  • Hebrew
    VTS_12 :
    Play Length: 00:00:42+00:00:00+00:02:21+00:00:00+00:02:24+00:00:00+00:01:39+00:00:00+00:02:57+00:00:00+00:02:03+00:00:00+00:00:42+00:00:00+00:01:30+00:00:00+00:00:15+00:00:00
    Video: PAL 4:3 (720x576) VBR
    Audio:
  • Not specified (Dolby AC3, 2 ch)
    VTS_13 :
    Play Length: 00:18:20
    Video: PAL 4:3 (720x576) VBR
    Audio:
  • English (Dolby AC3, 2 ch)
    Subtitles:
  • Polish
  • Turkish
  • Russian
  • Hebrew
    VTS_14 :
    Play Length: 00:00:33
    Video: PAL 4:3 (720x576) VBR
    Audio:
  • English (Dolby AC3, 2 ch)
    Subtitles:
  • Polish
  • Turkish
  • Russian
  • Hebrew
    VTS_15 :
    Play Length: 00:00:50
    Video: PAL 4:3 (720x576) VBR
    Audio:
  • English (Dolby AC3, 2 ch)
    Subtitles:
  • Polish
  • Turkish
  • Russian
  • Hebrew
    VTS_16 :
    Play Length: 00:02:42
    Video: PAL 4:3 (720x576) VBR
    Audio:
  • English (Dolby AC3, 2 ch)
    VTS_17 :
    Play Length: 00:00:40
    Video: PAL 4:3 (720x576) VBR
    Audio:
  • Japanese (Dolby AC3, 2 ch)
    VTS_18 :
    Play Length: 00:06:52
    Video: PAL 4:3 (720x576) VBR
    Audio:
  • English (Dolby AC3, 2 ch)
    * Menus Information *
    VIDEO_TS Menu
    Video:
  • PAL 4:3 (720x576) VBR
    English Language Unit :
  • Title Menu
    VTS_01 Menu
    Video:
  • PAL 4:3 (720x576) VBR
    English Language Unit :
  • Root Menu
    VTS_02 Menu
    Video:
  • PAL 4:3 (720x576) VBR
    Audio:
  • Not specified (Dolby AC3, 2 ch)
    English Language Unit :
  • Root Menu
  • Subpicture Menu
  • Audio Menu
    VTS_03 Menu
    Video:
  • PAL 4:3 (720x576) VBR
    English Language Unit :
  • Root Menu
    VTS_04 Menu
    Video:
  • PAL 4:3 (720x576) VBR
    English Language Unit :
  • Root Menu
    VTS_05 Menu
    Video:
  • PAL 4:3 (720x576) VBR
    English Language Unit :
  • Root Menu
    VTS_06 Menu
    Video:
  • PAL 4:3 (720x576) VBR
    English Language Unit :
  • Root Menu
    VTS_07 Menu
    Video:
  • PAL 4:3 (720x576) VBR
    English Language Unit :
  • Root Menu
    VTS_08 Menu
    Video:
  • PAL 4:3 (720x576) VBR
    English Language Unit :
  • Root Menu
    VTS_09 Menu
    Video:
  • PAL 4:3 (720x576) VBR
    English Language Unit :
  • Root Menu
    VTS_10 Menu
    Video:
  • PAL 4:3 (720x576) VBR
    English Language Unit :
  • Root Menu
    VTS_11 Menu
    Video:
  • PAL 4:3 (720x576) VBR
    English Language Unit :
  • Root Menu
    VTS_12 Menu
    Video:
  • PAL 4:3 (720x576) VBR
    English Language Unit :
  • Root Menu
    VTS_13 Menu
    Video:
  • PAL 4:3 (720x576) VBR
    English Language Unit :
  • Root Menu
    VTS_14 Menu
    Video:
  • PAL 4:3 (720x576) VBR
    English Language Unit :
  • Root Menu
    VTS_15 Menu
    Video:
  • PAL 4:3 (720x576) VBR
    English Language Unit :
  • Root Menu
    VTS_16 Menu
    Video:
  • PAL 4:3 (720x576) VBR
    English Language Unit :
  • Root Menu
    VTS_17 Menu
    Video:
  • PAL 4:3 (720x576) VBR
    English Language Unit :
  • Root Menu
    VTS_18 Menu
    Video:
  • PAL 4:3 (720x576) VBR
    English Language Unit :
  • Root Menu

MediaInfo:

Общее
Полное имя : D:\ФИЛЬМЫ\Pirates of the Caribbean The Curse of the Black Pearl (2003) 2xDVD9, 1xDVD5\Disc 2\VIDEO_TS\VTS_03_1.VOB
Формат : MPEG-PS
Размер файла : 1024 Мбайт
Продолжительность : 7 с. 160 мс.
Режим общего битрейта : Переменный
Общий поток : 1200 Мбит/сек
Видео
Идентификатор : 224 (0xE0)
Формат : MPEG Video
Версия формата : Version 2
Профиль формата : Main@Main
Параметр BVOP формата : Да
Параметр матрицы формата : Выборочная
Параметр GOP формата : Variable
Продолжительность : 7 с. 160 мс.
Вид битрейта : Переменный
Битрейт : 1176 Мбит/сек
Максимальный битрейт : 9800 Кбит/сек
Ширина : 720 пикселей
Высота : 576 пикселей
Соотношение сторон : 4:3
Частота кадров : 25,000 кадров/сек
Стандарт вещания : PAL
Цветовое пространство : YUV
Субдискретизация насыщенности : 4:2:0
Битовая глубина : 8 бит
Тип развёртки : Чересстрочная
Порядок развёртки : Верхнее поле первое
Метод сжатия : С потерями
Бит/(Пиксели*Кадры) : 113.391
TimeCode_FirstFrame : 00:59:58:00
TimeCode_Source : Group of pictures header
Размер потока : 1003 Мбайт (98%)
Аудио
Идентификатор : 189 (0xBD)-128 (0x80)
Формат : AC-3
Формат/Информация : Audio Coding 3
Профиль формата : Dolby Digital
Расширение режима : CM (complete main)
Параметр Endianness формата : Big
Режим смешивания : DVD-Video
Продолжительность : 6 с. 536 мс.
Вид битрейта : Постоянный
Битрейт : 192 Кбит/сек
Каналы : 2 канала
Расположение каналов : Front: L R
Частота : 48,0 КГц
Битовая глубина : 16 бит
Метод сжатия : С потерями
Размер потока : 153 Кбайт (0%)
Текст #1
Идентификатор : 189 (0xBD)-32 (0x20)
Формат : RLE
Формат/Информация : Run-length encoding
Режим смешивания : DVD-Video
Продолжительность : 3 с. 560 мс.
Задержка видео : 2 с. 520 мс.
Текст #2
Идентификатор : 189 (0xBD)-33 (0x21)
Формат : RLE
Формат/Информация : Run-length encoding
Режим смешивания : DVD-Video
Продолжительность : 3 с. 560 мс.
Задержка видео : 2 с. 520 мс.
Текст #3
Идентификатор : 189 (0xBD)-34 (0x22)
Формат : RLE
Формат/Информация : Run-length encoding
Режим смешивания : DVD-Video
Продолжительность : 3 с. 560 мс.
Задержка видео : 2 с. 520 мс.
Текст #4
Идентификатор : 189 (0xBD)-35 (0x23)
Формат : RLE
Формат/Информация : Run-length encoding
Режим смешивания : DVD-Video
Продолжительность : 3 с. 560 мс.
Задержка видео : 2 с. 520 мс.
Меню

Скриншоты меню:

             
   
Скриншоты:
         
-

Пираты Карибского моря: Проклятие Черной жемчужины / Pirates of the Caribbean: The Curse of the Black Pearl (2003) [Дополнительные материалы] DVD5

Пираты Карибского моря: Проклятие Черной жемчужины / Pirates of the Caribbean: The Curse of the Black Pearl (2003) [Дополнительные материалы] DVD5
«Over 3000 Islands of Paradise -- For Some it's A Blessing -- For Others... It's A Curse.»
-Дополнительные материалы к фильму:
• Джек Воробей |00:07:20|
• Барбосса |00:05:31|
• Созданный, чтобы взлететь на воздух |00:06:18|
• Внимание, мотор! |00:03:14| |00:06:26| |00:04:50|
• Трудно быть обезьяной |00:04:35|
• Компьютер на службе режиссера |00:04:16|
• Трудности перевода |00:04:11|
• Пираты в карандаше |00:07:11|
• Мертвые не кусаются |00:13:56|
Комментарий: Английский
Субтитры: Вшитые, отключаемые
Язык субтитров: Русские, английские, польские, турецкие, иврит
Disc 3:
Общая продолжительность: 01:08:51
Качество видео: DVD5
Видео: MPEG-2, 720x576@768x576 (PAL 4:3), ~5061 Кбит/сек
Аудио : AC3 2.0, 192 Кбит/сек [Английский]

DVDInfo:

Title: Disc 3
Size: 3.52 Gb ( 3 688 106,00 KBytes ) - DVD-5
Enabled regions: 1, 2, 3, 4, 5, 6, 7, 8
VTS_01 :
Play Length: 00:00:00+{00:00:00}+00:00:00+00:00:00+00:05:40+{00:02:31}+00:07:41+{00:03:38}
Video: PAL 4:3 (720x576) VBR
Audio:
  • Not specified (Dolby AC3, 2 ch)
    Subtitles:
  • Not specified
    VTS_02 :
    Play Length: 00:00:03
    Video: PAL 16:9 (720x576) VBR, Auto Pan&Scan
    Audio:
  • Not specified (Dolby AC3, 2 ch)
    VTS_03 :
    Play Length: 00:07:20+00:05:31+00:06:18+00:04:35+00:04:16+00:04:11+00:07:11+00:13:56+00:00:00+00:03:14+00:06:26+00:04:50+00:01:03
    Video: PAL 4:3 (720x576) VBR
    Audio:
  • English (Dolby AC3, 2 ch)
    Subtitles:
  • Polish
  • Turkish
  • Russian
  • Hebrew
    VTS_04 :
    Play Length: 00:00:03+00:00:03+00:00:00+00:00:03+00:00:03+00:00:03
    Video: PAL 4:3 (720x576) VBR
    Audio:
  • Not specified (Dolby AC3, 2 ch)
    VTS_05 :
    Play Length: 00:00:09
    Video: PAL 4:3 (720x576) VBR
    Audio:
  • Not specified (Dolby AC3, 6 ch)
    * Menus Information *
    VIDEO_TS Menu
    Video:
  • PAL 4:3 (720x576) VBR
    English Language Unit :
  • Title Menu
    VTS_01 Menu
    Video:
  • PAL 4:3 (720x576) VBR
    English Language Unit :
  • Root Menu
    VTS_02 Menu
    Video:
  • PAL 4:3 (720x576) VBR
    Audio:
  • Not specified (Dolby AC3, 2 ch)
    English Language Unit :
  • Root Menu
  • Subpicture Menu
  • Audio Menu
    VTS_03 Menu
    Video:
  • PAL 4:3 (720x576) VBR
    English Language Unit :
  • Root Menu
    VTS_04 Menu
    Video:
  • PAL 16:9 (720x576) VBR
  • Auto Pan&Scan
    English Language Unit :
  • Root Menu
    VTS_05 Menu
    Video:
  • PAL 16:9 (720x576) VBR
  • Auto Pan&Scan
    English Language Unit :
  • Root Menu

MediaInfo:

Общее
Полное имя : D:\ФИЛЬМЫ\Pirates of the Caribbean The Curse of the Black Pearl (2003) 2xDVD9, 1xDVD5\Disc 3\VIDEO_TS\VTS_03_1.VOB
Формат : MPEG-PS
Размер файла : 1024 Мбайт
Продолжительность : 3 м. 13 с.
Режим общего битрейта : Переменный
Общий поток : 44,5 Мбит/сек
Видео
Идентификатор : 224 (0xE0)
Формат : MPEG Video
Версия формата : Version 2
Профиль формата : Main@Main
Параметр BVOP формата : Да
Параметр матрицы формата : Выборочная
Параметр GOP формата : Variable
Продолжительность : 3 м. 13 с.
Вид битрейта : Переменный
Битрейт : 43,4 Мбит/сек
Ширина : 720 пикселей
Высота : 576 пикселей
Соотношение сторон : 4:3
Частота кадров : 25,000 кадров/сек
Стандарт вещания : PAL
Цветовое пространство : YUV
Субдискретизация насыщенности : 4:2:0
Битовая глубина : 8 бит
Тип развёртки : Прогрессивная
Порядок развёртки : Верхнее поле первое
Метод сжатия : С потерями
Бит/(Пиксели*Кадры) : 4.187
Размер потока : 999 Мбайт (98%)
Аудио
Идентификатор : 189 (0xBD)-128 (0x80)
Формат : AC-3
Формат/Информация : Audio Coding 3
Расширение режима : CM (complete main)
Параметр Endianness формата : Big
Режим смешивания : DVD-Video
Продолжительность : 3 м. 12 с.
Вид битрейта : Постоянный
Битрейт : 192 Кбит/сек
Каналы : 2 канала
Расположение каналов : Front: L R
Частота : 48,0 КГц
Битовая глубина : 16 бит
Метод сжатия : С потерями
Размер потока : 4,41 Мбайт (0%)
Текст #1
Идентификатор : 189 (0xBD)-32 (0x20)
Формат : RLE
Формат/Информация : Run-length encoding
Режим смешивания : DVD-Video
Текст #2
Идентификатор : 189 (0xBD)-33 (0x21)
Формат : RLE
Формат/Информация : Run-length encoding
Режим смешивания : DVD-Video
Текст #3
Идентификатор : 189 (0xBD)-34 (0x22)
Формат : RLE
Формат/Информация : Run-length encoding
Режим смешивания : DVD-Video
Текст #4
Идентификатор : 189 (0xBD)-35 (0x23)
Формат : RLE
Формат/Информация : Run-length encoding
Режим смешивания : DVD-Video
Меню

Скриншоты меню:

   
Скриншоты:
         
-

DVD обложки:

         
-
Вне форума [Профиль] [ЛС]
Похожие темы
Форум Тема Автор Торрент Отв. Посл. сообщение
./templates/default/images/folder_dl.gif Отечественные мультфильмы Синдбад. Пираты семи штормов (Владлен Барбэ) [2016, Россия, Мультфильм, WEB-DLRip] Omen
1 | 0

0 | 242

3

2016-12-03 01:00
Omen Последнее
./templates/default/images/folder_dl.gif Новинки (HD|DVD|BD|WEB|TV|SAT|PDTV|-Rip) Пираты Карибского моря: Мертвецы не рассказывают сказки / Pirates of the Caribbean: Dead Men Tell No Tales (Хоаким Роннинг, Эспен Сандберг) [2017 г., Фэнтези, боевик, комедия, приключения, BDRip] D | Лицензия Theseus
1 | 0

0 | 44973

1

2017-09-07 22:31
Theseus Последнее
./templates/default/images/folder_dl.gif Новинки (BD|HDTV|DVD) Пираты Карибского моря: Мертвецы не рассказывают сказки / Pirates of the Caribbean: Dead Men Tell No Tales (Хоаким Роннинг, Эспен Сандберг) [2017 г., Фэнтези, боевик, комедия, приключения, BDRip 720p] D | Лицензия Theseus
1 | 0

0 | 5867

1

2017-09-13 16:49
Theseus Последнее
./templates/default/images/folder_dl.gif Новинки (BD|HDTV|DVD) Пираты Карибского моря: Мертвецы не рассказывают сказки / Pirates of the Caribbean: Dead Men Tell No Tales (Хоаким Роннинг, Эспен Сандберг) [2017 г., Фэнтези, боевик, комедия, приключения, BDRemux] DUB Theseus
1 | 0

0 | 5811

1

2017-09-13 17:03
Theseus Последнее
Показать сообщения:    
Ответить на тему

Текущее время: Сегодня 10:17

Часовой пояс: GMT + 3



Вы не можете начинать темы
Вы не можете отвечать на сообщения
Вы не можете редактировать свои сообщения
Вы не можете удалять свои сообщения
Вы не можете голосовать в опросах
Вы не можете прикреплять файлы к сообщениям
Вы не можете скачивать файлы