Today is a free download without charge Download

(Rockabilly) Motorcycle Gang [50's Rockabilly Records] - 1994, (image+.cue), lossless

Reply to topic
 
Author
Message

Omen ®

Longevity: 8 years 5 months

Posts: 181087

Торрент-статистика

Post 07-Mar-2013 21:22

[Quote]

Motorcycle Gang
Жанр: Rockabilly
Страна-производитель диска: Germany
Год издания: 1994
Издатель (лейбл): DeeJay Records
Номер по каталогу: 55008
Страна: USA
Аудиокодек: FLAC (*.flac)
Тип рипа: image+.cue
Битрейт аудио: lossless
Продолжительность: 74:22
Источник (релизер): AUDELAS KINGDOM
Наличие сканов в содержимом раздачи: да

01. The Crestones / She's A Bad Motorcycle
02. Jackie Gotroe / Lobo Jones
03. Johnny Roane / Drag Strip Baby
04. Shelby Smith / What's On Your Mind
05. Kenny Loren / Brenda
06. David Orrell / Be My Baby
07. Bill Starr / Grizzly Bear
08. Little Montie Jones / Your Just That Kind
09. Arnold Blevins And Calvin Spicer / I Got That Queen
10. Andy Anderson / Johnny Valentine
11. Paul Huffman With The Rebel Combo / She's Mine
12. Terry Daly And The Nu-Tunes / You Don't Bug Me
13. Dennis Penna / Battle Of The Duals
14. Red Berry And The Berry Brothers / What A Dolly
15. Chuck Bene / Come Back Baby
16. Don Epperson / You're Gone, Again
17. Tico & Triumphs / Motorcycle
18. Starlighters / Cindy Lee
19. Conny & The Bellhops / Shot Rod
20. Dwight Pullen / Sunglasses After Dark
21. Darrell Rhodes / Runnin' And Chasin'
22. Myron Lee & The Caddies / Aw C'mon Baby
23. Glen Walp / Honeybun
24. Bill Pollard And Mike Hight And The Rhythmnaires / Nite Spot
25. Jerry Jowers And Jimmy Trucks And His Deratones / Live And L
26. Lee Mcbride / Confusion
27. Norman Witcher / Somebody's Been Rocking My Boat
28. Myron Lee & The Caddies / Homicide
29. Dwight Pullen / Teenage Bug
30. Dave Day / Motorcycle Mike
31. Tommy Pedigo / Trouble

Лог создания рипа

Exact Audio Copy V1.0 beta 2 from 29. April 2011
Отчёт EAC об извлечении, выполненном 7. марта 2013, 7:38
Various / Motorcycle Gang
Дисковод: ATAPI iHAS124 B Adapter: 1 ID: 1
Режим чтения : ДостоверностьИспользование точного потока : ДаОтключение кэша аудио : ДаИспользование указателей C2 : Нет
Коррекция смещения при чтении : 6Способность читать области Lead-in и Lead-out : НетЗаполнение пропущенных сэмплов тишиной : ДаУдаление блоков с тишиной в начале и конце : НетПри вычислениях CRC использовались нулевые сэмплы : ДаИнтерфейс : Встроенный Win32-интерфейс для Win NT/2000
Выходной формат : Пользовательский кодировщикВыбранный битрейт : 1024 kBit/sКачество : ВысокийДобавление ID3-тега : НетУтилита сжатия : C:\Program Files\Exact Audio Copy\FLAC\FLAC.EXEДополнительные параметры : -6 -V -T "ARTIST=%artist%" -T "TITLE=%title%" -T "ALBUM=%albumtitle%" -T "DATE=%year%" -T "TRACKNUMBER=%tracknr%" -T "GENRE=%genre%" -T "COMMENT=%comment%" -T "BAND=%albuminterpret%" -T "COMPOSER=%composer%" %haslyrics%--tag-from-
TOC извлечённого CD
Трек | Старт | Длительность | Начальный сектор | Конечный сектор --------------------------------------------------------------------- 1 | 0:00.00 | 2:07.72 | 0 | 9596 2 | 2:07.72 | 1:59.38 | 9597 | 18559 3 | 4:07.35 | 2:29.45 | 18560 | 29779 4 | 6:37.05 | 1:48.37 | 29780 | 37916 5 | 8:25.42 | 1:56.10 | 37917 | 46626 6 | 10:21.52 | 1:47.65 | 46627 | 54716 7 | 12:09.42 | 1:50.25 | 54717 | 62991 8 | 13:59.67 | 2:01.10 | 62992 | 72076 9 | 16:01.02 | 1:53.30 | 72077 | 80581 10 | 17:54.32 | 2:01.73 | 80582 | 89729 11 | 19:56.30 | 2:13.55 | 89730 | 99759 12 | 22:10.10 | 1:57.25 | 99760 | 108559 13 | 24:07.35 | 2:40.55 | 108560 | 120614 14 | 26:48.15 | 1:53.25 | 120615 | 129114 15 | 28:41.40 | 2:19.60 | 129115 | 139599 16 | 31:01.25 | 1:43.22 | 139600 | 147346 17 | 32:44.47 | 2:11.03 | 147347 | 157174 18 | 34:55.50 | 2:53.60 | 157175 | 170209 19 | 37:49.35 | 2:06.22 | 170210 | 179681 20 | 39:55.57 | 2:12.50 | 179682 | 189631 21 | 42:08.32 | 2:17.30 | 189632 | 199936 22 | 44:25.62 | 1:37.18 | 199937 | 207229 23 | 46:03.05 | 2:17.45 | 207230 | 217549 24 | 48:20.50 | 1:29.55 | 217550 | 224279 25 | 49:50.30 | 2:11.65 | 224280 | 234169 26 | 52:02.20 | 1:46.60 | 234170 | 242179 27 | 53:49.05 | 2:02.52 | 242180 | 251381 28 | 55:51.57 | 2:13.25 | 251382 | 261381 29 | 58:05.07 | 2:00.35 | 261382 | 270416 30 | 60:05.42 | 1:52.73 | 270417 | 278889 31 | 61:58.40 | 2:02.45 | 278890 | 288084
Характеристики диапазона извлечения и сообщения об ошибках
Выбранный диапазон
Имя файла C:\Blues\VA - Motorcycle Gang (1994)\Various - Motorcycle Gang.wav
Пиковый уровень 89.9 % Скорость извлечения 9.6 X Качество диапазона 100.0 % CRC теста 15444DB9 CRC копии 15444DB9 Копирование... OK
Ошибок не произошло
AccurateRip: сводка
Трек 1 : извлечено точно (доверие 1) [270740EB] (AR v1)Трек 2 : извлечено точно (доверие 1) [D92C46D8] (AR v1)Трек 3 : извлечено точно (доверие 1) [26999EA9] (AR v1)Трек 4 : извлечено точно (доверие 1) [C6077351] (AR v1)Трек 5 : извлечено точно (доверие 1) [4200F5AF] (AR v1)Трек 6 : извлечено точно (доверие 1) [05BE3F79] (AR v1)Трек 7 : извлечено точно (доверие 1) [E3AE9E79] (AR v1)Трек 8 : извлечено точно (доверие 1) [D8B9DC26] (AR v1)Трек 9 : извлечено точно (доверие 1) [F53A7373] (AR v1)Трек 10 : извлечено точно (доверие 1) [C3EB87E6] (AR v1)Трек 11 : извлечено точно (доверие 1) [231933DD] (AR v1)Трек 12 : извлечено точно (доверие 1) [B2BCE62C] (AR v1)Трек 13 : извлечено точно (доверие 1) [A71786F8] (AR v1)Трек 14 : извлечено точно (доверие 1) [67465B45] (AR v1)Трек 15 : извлечено точно (доверие 1) [E7B69244] (AR v1)Трек 16 : извлечено точно (доверие 1) [1A02563C] (AR v1)Трек 17 : извлечено точно (доверие 1) [4D1EA561] (AR v1)Трек 18 : извлечено точно (доверие 1) [34CEE035] (AR v1)Трек 19 : извлечено точно (доверие 1) [79DB567D] (AR v1)Трек 20 : извлечено точно (доверие 1) [E1EB8D2B] (AR v1)Трек 21 : извлечено точно (доверие 1) [DC7BF7AC] (AR v1)Трек 22 : извлечено точно (доверие 1) [B231E84A] (AR v1)Трек 23 : извлечено точно (доверие 1) [EC01F067] (AR v1)Трек 24 : извлечено точно (доверие 1) [6E13CC2F] (AR v1)Трек 25 : извлечено точно (доверие 1) [3842B7BE] (AR v1)Трек 26 : извлечено точно (доверие 1) [592BD3A7] (AR v1)Трек 27 : извлечено точно (доверие 1) [9EE35A67] (AR v1)Трек 28 : извлечено точно (доверие 1) [9747818B] (AR v1)Трек 29 : извлечено точно (доверие 1) [36B1CEAB] (AR v1)Трек 30 : извлечено точно (доверие 1) [F6D95D5E] (AR v1)Трек 31 : извлечено точно (доверие 1) [1D88B1A7] (AR v1)
Все треки извлечены точно
Конец отчёта
==== Контрольная сумма отчёта 7A75BBD411DB573CF5C8DC0EBD6A58A5D4FDE14B1BE1B4EB4EEDC2366886160A ====
Other forum [Profile] [PM]

pomplimusss

Longevity: 4 years

Posts: 3

Торрент-статистика

Post 26-Apr-2017 13:48 (after 4 years 1 month)

[Quote]

большое спасибо!
Other forum [Profile] [PM]
Display posts from previous:    
Reply to topic

The time now is: Today 14:03

All times are GMT + 3 Hours



You cannot post new topics in this forum
You cannot reply to topics in this forum
You cannot edit your posts in this forum
You cannot delete your posts in this forum
You cannot vote in polls in this forum
You cannot attach files in this forum
You cannot download files in this forum