Сегодня идет свободное скачивание без начисления Download

Звездные Войны: Войны Клонов / Star Wars: The Clone Wars (Сезон 5, полный) (Дэйв Филони / Dave Filoni ...) [2012г., Фантастика, Фэнтези, Боевик, Драма, Приключения, WEB-DLRip] MVO (LostFilm) [обновляемая]

Ответить на тему
 
Автор
Сообщение

Omen ®

Стаж: 4 года 10 месяцев

Сообщений: 190643

Торрент-статистика

Пост 02-Мар-2013 23:28

[Цитировать]

Звездные Войны: Войны Клонов
Star Wars: The Clone Wars

«Let freedom ride»
- Русское название: Звездные Войны: Войны Клонов
Оригинальное название: Star Wars: The Clone Wars
Страна: США
Год выпуска: 2012
Жанр: Фантастика, Фэнтези, Боевик, Драма, Приключения, ...-Озвучка: Студия LostFilm
Перевод: Многоголосый закадровый, профессиональный-Режиссер: Дэйв Филони / Dave Filoni, Дуэйн Данэм / Duwayne Dunham, Роберт Далва / Robert Dalva
В главных ролях:Том Кэйн, Ди Брэдли Бейкер, Мэтт Лантер, Джеймс Арнольд Тейлор, Эшли Дрейн, Мэттью Вуд, Кори Бертон, Катрин Табер, Терренс «Т.К.» Карсон, Йен Эберкромби ...
Роли дублировали: Борис Смолкин, Сергей Паршин, Андрей Зайцев, Евгений Иванов, Борис Хасанов ...-Описание фильма:
Дарт Мол и Саваж Опресс сеют смерть и разрушение, занимаясь разбоем на Внешнем Кольце. Избавив брата от отчаяния и забвения, Саваж со своим братом убивают и мародёрствуют всюду. Снедаемый бешенством и местью, они прибывают в поиске смысла в их новом альянсе; тогда как слухи о их жестоких набегах распространяется по галактике. Дарт Мол явно не горит желанием примкнуть ни к Сепаратистам в борьбе против Республики ни к джедаям, но намерен выступить в качестве третьей силы в галактическом конфликте.-Сезон: 5
Серии: 20 из 20 серий
Продолжительность: ~ 00:21:00 мин серия-Качество видео: WEB-DLRip
Формат: AVI
Видеокодек: XviD
Аудиокодек: Mp3
Видео: MPEG-4 Visual at 1856 Кбит/сек, 720 x 400 (1.800) at 23.976 fps
Аудио: MPEG Audio at 128 Кбит/сек, 2 канала, 48,0 КГц
- -

Список серий:

  • Возрождение (Revival)
  • Война на два фронта (A War on Two Fronts)
  • Кандидаты (Front Runners)
  • Мягкая война (The Soft War)
  • Переломный момент (Tipping Points)
  • Сбор (The Gathering)
  • Проба сил (A Test of Strength)
  • Спасти любой ценой (Bound for Rescue)
  • Вынужденный союз (A Necessary Bond)
  • Секретное оружие (Secret Weapons)
  • В пустыне в солнечный денёк (A Sunny Day in the Void)
  • Пропавший без вести (Missing in Action)
  • Назад дороги нет (Point of No Return)
  • Путь к власти (Eminence)
  • Скрытые мотивы (Shades of Reason)
  • Непокорный (The Lawless)
  • Диверсия (Sabotage)
  • Джедай, который слишком много знал (The Jedi Who Knew Too Much)
  • В погоне за джедаем (To Catch a Jedi)
  • Ошибка правосудия (The Wrong Jedi)
-

MediaInfo:

Код:
Общее
Полное имя                               : E:\Сериалы\Star Wars The Clone Wars\Star.Wars.The.Clone.Wars.S05.rus.LostFilm\Star.Wars.The.Clone.Wars.S05E01.rus.LostFilm.TV.avi
Формат                                   : AVI
Формат/Информация                        : Audio Video Interleave
Размер файла                             : 320 Мбайт
Продолжительность                        : 22 м.
Общий поток                              : 1993 Кбит/сек
Программа кодирования                    : VirtualDubMod 1.5.10.1 (build 2366/release)
Библиотека кодирования                   : VirtualDubMod build 2366/release
Видео
Идентификатор                            : 0
Формат                                   : MPEG-4 Visual
Профиль формата                          : Simple@L3
Параметр BVOP формата                    : Нет
Параметр QPel формата                    : Нет
Параметр GMC формата                     : Без точки перехода
Параметр матрицы формата                 : Default (H.263)
Идентификатор кодека                     : XVID
Идентификатор кодека/Подсказка           : XviD
Продолжительность                        : 22 м.
Битрейт                                  : 1856 Кбит/сек
Ширина                                   : 720 пикселей
Высота                                   : 400 пикселей
Соотношение сторон                       : 16:9
Частота кадров                           : 23,976 кадра/сек
Цветовое пространство                    : YUV
Субдискретизация насыщенности            : 4:2:0
Битовая глубина                          : 8 бит
Тип развёртки                            : Прогрессивная
Метод сжатия                             : С потерями
Бит/(Пиксели*Кадры)                      : 0.269
Размер потока                            : 298 Мбайт (93%)
Библиотека кодирования                   : XviD 1.2.1 (UTC 2008-12-04)
Аудио
Идентификатор                            : 1
Формат                                   : MPEG Audio
Версия формата                           : Version 1
Профиль формата                          : Layer 3
Режим                                    : Joint stereo
Расширение режима                        : MS Stereo
Идентификатор кодека                     : 55
Идентификатор кодека/Подсказка           : MP3
Продолжительность                        : 22 м.
Вид битрейта                             : Постоянный
Битрейт                                  : 128 Кбит/сек
Каналы                                   : 2 канала
Частота                                  : 48,0 КГц
Метод сжатия                             : С потерями
Размер потока                            : 20,5 Мбайт (6%)
Выравнивание                             : Соединение по промежуткам
Продолжительность промежутка             : 42  мс. (1,00 видеокадр)
Время предзагрузки промежутка            : 504  мс.
563155
-

Внимание! Раздача ведётся путём добавления новых серий!

Внимание! Раздача ведётся путём добавления новых серий; при каждом добавлении создётся новый торрент. Чтобы начать докачку новой серии, пользователям необходимо сделать следующее:
(1) остановить скачивание,
(2) удалить старый торрент у себя из клиента (старые серии удалять не надо),
(3) скачать новый торрент и запустить его у себя в клиенте вместо старого, при этом указать клиенту путь в старую папку куда и должно происходить скачивание новых серий.
Ваш клиент при этом должен произвести хеширование (проверку) старой папки (если не производит сам - помогите ему сделать это), и будет докачивать только те серии которых у вас ещё нет. Старые серии при этом не удаляются, а продолжают раздаваться!
Eсли вы уже удалили старые серии, то предотвратить повторную закачку старых серий можно, отжав галочку в соответсвующих местах при запуске нового торрента.
-Скриншоты:
       
-

Еще

         
-Пятый сезон полностью
Вне форума [Профиль] [ЛС]
Показать сообщения:    
Ответить на тему

Текущее время: Сегодня 03:52

Часовой пояс: GMT + 3



Вы не можете начинать темы
Вы не можете отвечать на сообщения
Вы не можете редактировать свои сообщения
Вы не можете удалять свои сообщения
Вы не можете голосовать в опросах
Вы не можете прикреплять файлы к сообщениям
Вы не можете скачивать файлы