Сегодня идет свободное скачивание без начисления Download

Друзья / Friends / Сезон: 6 / Серии: 1-25 из 25 (Гари Хэлворсон, Шелли Дженсен, Терри Хьюз, Дэна Де Валли Пьяцца) [1999, Комедия, BDRip-AVC] MVO (РТР/СТС) + Original

Ответить на тему
 
Автор
Сообщение

Omen ®

Стаж: 5 лет 6 месяцев

Сообщений: 186946

Торрент-статистика

Пост 27-Фев-2013 11:20

[Цитировать]

Друзья / Friends / Сезон: 6 / BDRip-AVC
Everybody needs Friends!
Год выпуска: 1999
Страна: США
Жанр: Комедия
Продолжительность: 00:22:00
Перевод: Профессиональный (многоголосый закадровый) РТР/СТС
Режиссёр: Гари Хэлворсон, Шелли Дженсен, Терри Хьюз, Дэна Де Валли Пьяцца...
В ролях: Дженнифер Энистон / Jennifer Aniston - Рейчел
Кортни Кокс / Courteney Cox - Моника
Лиза Кудроу / Lisa Kudrow - Фиби
Мэтт ЛеБлан / Matt LeBlanc - Джо
Мэттью Перри / Matthew Perry - Чендлер
Дэвид Швиммер / David Schwimmer - Рос
Описание: Главные герои — шестеро друзей — Рейчел, Моника, Фиби, Джоуи, Чендлер и Росс. Три девушки и три парня, которые дружат, живут по соседству, вместе убивают время и противостоят жестокой реальности, делятся своими секретами и иногда очень сильно влюбляются.
Сэмпл

Друзья


Рэ́йчел Грин (Дженнифер Энистон) — полное имя Рэ́йчел Карен Грин
Рэйчел — девушка, выросшая в состоятельной семье и имеющая малое представление о реальной жизни. У неё есть две сестры — Эми и Джил. В первом эпизоде сериала Рейчел сбегает с собственной свадьбы и поселяется у своей школьной подруги Моники Геллер, решив таким образом начать самостоятельную жизнь. Позже она делает карьеру в мире моды. У Рэйчел было множество партнёров, но с первого и до последнего сезона сюжетная линия связывает её с Россом. В восьмом сезоне от него она рожает дочку Эмму.-
Мо́ника Ге́ллер (Кортни Кокс-Аркетт) — полное имя Моника Велула Геллер (впоследствии — Геллер-Бинг)
Моника — младшая сестра Росса Геллера. В детстве она была очень толстой, из-за чего сильно комплексовала. Однако ко времени действия сериала она очень похудела. У неё есть некоторые навязчивые идеи, которые периодически дают о себе знать: она требует идеального порядка, не может никому ничего доверить, хочет всегда быть победителем. Друзья уже привыкли к её странностям и не обращают на них внимания. Моника — отличный повар, её карьера идёт вверх (хотя случаются и падения), и к концу сериала она становится шеф-поваром престижного ресторана. У Моники было множество парней, но серьёзные отношения связывали её только с Ричардом, другом её родителей, и с Чендлером, за которого она вышла замуж в седьмом сезоне сериала.-
Фи́би Буффе́ (Лиза Кудроу) — полное имя Фи́би Буффе́ (впоследствии — Буффе-Хэнниган)
У Фиби достаточно странное прошлое, которое открывается постепенно по мере развития сюжета. Её родная мать оставила девочку близкой подруге, отец сбежал из семьи, а потом приёмная мать покончила с собой, а отчим сел в тюрьму. В начале сериала она живёт с бабушкой, а по мере развития сериала находит родную мать и отца. Какое-то время в юности она жила на улице и занималась грабежом. У Фиби есть сестра-близнец, Урсула, но они почти не общаются. Фиби работает массажисткой и играет на гитаре. В последних сезонах сериала Фиби знакомится с Майком, за которого в десятом сезоне выходит замуж.-
Джоуи Триббиа́ни (Мэтт Леблан) — полное имя Джозеф Фрэнсис Триббиа́ни Младший
Джо родился в итальяно-американской семье, в которой помимо него было семь сестёр. В сериале Джо изображён как стереотипный актёр. Он беден, малообразован, наивен и находится в постоянном поиске работы. В то же время он очень обаятелен и имеет успех у женщин, чем постоянно и пользуется. Почти весь сериал у Джо нет постоянной работы: он снимается в рекламе, сериалах и фильмах, но никак не может получить более-менее серьёзную роль. В конце концов он становится актёром известного сериала «Дни нашей жизни».-
Че́ндлер Бинг (Мэттью Перри) — полное имя Че́ндлер Мюриэл Бинг
Чендлер родился в семье писательницы эротических романов Норы Тайлер Бинг и гомосексуалиста-трансвестита Чарльза Бинга. У Чендлера множество комплексов, от которых он отгораживается постоянными шутками. Работа Чендлера — анализ и реконфигурация данных, и в этой сфере он делает неплохую карьеру. Однако в конце сериала он бросает работу и начинает всё с нуля в рекламном бизнесе. Чендлеру не очень везёт в любви. По существу, у него было всего два более-менее серьёзных романа: с Дженис и с Моникой, на которой он женится в седьмом сезоне сериала.-
Росс Ге́ллер (Дэвид Швиммер) — полное имя Росс Юстас Ге́ллер
Росс — старший брат Моники и любимец их родителей. Он — уважаемый палеонтолог, работавший сначала в музее, заканчивая карьеру профессором, преподающим в университете. В любви ему не очень везёт: у него плохо получается знакомиться с девушками. Тем не менее, он был трижды женат и столько же раз разведён. Ещё со школы он влюблён в Рэйчел, и их отношения являются основной любовной сюжетной линией сериала (в одном из сезонов они спьяну женятся в Лас-Вегасе). У Росса двое детей — сын Бен от первого брака и дочь Эмма от Рэйчел.
Качество: BDRip-AVC
Формат: MKV
Видео кодек: H.264
Аудио кодек: AC3
Видео: 720 Х 400 / 23.976 fps / 1600 kbp/s / 0.2 bit/px
Аудио: AC3 / 2.0 / 192 kbp/s / 48 KHz - русская
Аудио 2: AC3 / 5.1 / 384 kbp/s / 48 KHz - английская
Субтитры: Английские

MediaInfo

General
Unique ID : 201289955280557995527992078206946799594 (0x976F09055A2F82A8AA166C2126346FEA)
Complete name : F:\Friends AVC\06\0615 - The One that Could Have Been, Part 1.mkv
Format : Matroska
Format version : Version 2
File size : 354 MiB
Duration : 21mn 58s
Overall bit rate : 2 253 Kbps
Movie name : Друзья - 0615 - Эпизод, в котором всё могло быть иначе, часть 1 / Релиз - D2T/"Криволапый ювелир"
Encoded date : UTC 2013-01-15 21:29:33
Writing application : mkvmerge v4.0.0 ('The Stars were mine') сборка от Jun 6 2010 16:18:42
Writing library : libebml v1.0.0 + libmatroska v1.0.0
Video
ID : 1
Format : AVC
Format/Info : Advanced Video Codec
Format profile : High@L3.0
Format settings, CABAC : Yes
Format settings, ReFrames : 4 frames
Codec ID : V_MPEG4/ISO/AVC
Duration : 21mn 58s
Bit rate : 1 632 Kbps
Width : 720 pixels
Height : 400 pixels
Display aspect ratio : 16:9
Frame rate : 23.976 fps
Color space : YUV
Chroma subsampling : 4:2:0
Bit depth : 8 bits
Scan type : Progressive
Bits/(Pixel*Frame) : 0.236
Stream size : 257 MiB (72%)
Writing library : x264 core 129 r2230 1cffe9f
Encoding settings : cabac=1 / ref=4 / deblock=1:0:0 / analyse=0x3:0x113 / me=tesa / subme=9 / psy=1 / psy_rd=1.00:0.00 / mixed_ref=1 / me_range=16 / chroma_me=1 / trellis=2 / 8x8dct=1 / cqm=0 / deadzone=21,11 / fast_pskip=1 / chroma_qp_offset=-2 / threads=6 / lookahead_threads=1 / sliced_threads=0 / nr=0 / decimate=1 / interlaced=0 / bluray_compat=0 / constrained_intra=0 / bframes=4 / b_pyramid=2 / b_adapt=2 / b_bias=0 / direct=3 / weightb=1 / open_gop=0 / weightp=2 / keyint=144 / keyint_min=14 / scenecut=33 / intra_refresh=0 / rc=cqp / mbtree=0 / qp=19 / ip_ratio=1.40 / pb_ratio=1.30 / aq=0
Language : English
Audio #1
ID : 2
Format : AC-3
Format/Info : Audio Coding 3
Mode extension : CM (complete main)
Codec ID : A_AC3
Duration : 21mn 58s
Bit rate mode : Constant
Bit rate : 192 Kbps
Channel(s) : 2 channels
Channel positions : Front: L R
Sampling rate : 48.0 KHz
Bit depth : 16 bits
Compression mode : Lossy
Stream size : 30.2 MiB (9%)
Language : Russian
Audio #2
ID : 3
Format : AC-3
Format/Info : Audio Coding 3
Mode extension : CM (complete main)
Codec ID : A_AC3
Duration : 21mn 58s
Bit rate mode : Constant
Bit rate : 384 Kbps
Channel(s) : 6 channels
Channel positions : Front: L C R, Side: L R, LFE
Sampling rate : 48.0 KHz
Bit depth : 16 bits
Compression mode : Lossy
Stream size : 60.4 MiB (17%)
Language : English
Text
ID : 4
Format : UTF-8
Codec ID : S_TEXT/UTF8
Codec ID/Info : UTF-8 Plain Text
Language : English
Menu
00:00:00.000 : en:00:00:00.000
00:02:50.796 : en:00:02:50.796
00:10:02.018 : en:00:10:02.018
00:21:23.616 : en:00:21:23.616

Релиз

"D2T/Криволапый ювелир"
-
Вне форума [Профиль] [ЛС]
Показать сообщения:    
Ответить на тему

Текущее время: Сегодня 01:32

Часовой пояс: GMT + 3



Вы не можете начинать темы
Вы не можете отвечать на сообщения
Вы не можете редактировать свои сообщения
Вы не можете удалять свои сообщения
Вы не можете голосовать в опросах
Вы не можете прикреплять файлы к сообщениям
Вы не можете скачивать файлы