Сегодня идет свободное скачивание без начисления Download

Симпсоны / The Simpsons / Сезон: 24 / Серии: 1-12 из 22 (Мэтт Гроунинг / Matt Groening) [2012, Мультсериал, комедия, пародия, WEB-DLRip] MVO (Nice-Media)

Ответить на тему
 
Автор
Сообщение

Omen ®

Стаж: 5 лет

Сообщений: 190530

Торрент-статистика

Пост 24-Фев-2013 21:32

[Цитировать]

Симпсоны / The Simpsons / Сезон: 24
Страна: США
Жанр: Мультсериал, комедия, пародия
Продолжительность: 22 х ~ 00:20:00
Год выпуска: 2012
Перевод: Профессиональный (многоголосый закадровый) [Nice-Media]
Русские субтитры: (вшитые) частично, при исполнении песен на языке оригинала
Режиссёр: Мэтт Гроунинг / Matt Groening
Роли озвучивали: Дэн Кастелланета, Джули Кавнер, Нэнси Картрайт, Ярдли Смит, Гарри Ширер, Хэнк Азария, Памела Хейден, Тресс МакНилл, Карл Видерготт, Мэгги Росвэлл и другие.
Описание: Двадцать четвертый сезон мультсериала «Симпсоны» — вышел в эфир 30 сентября 2012 года на телеканале Fox.
Симпсоны живут в вымышленном городе Спрингфилд, со своим обществом и историей. Гомер - отец семейства, который дает плохие советы и работает инспектором безопасности на атомной электростанции; Мардж - любящая мать и жена, старается сохранить спокойствие в семье; Барт - 10 летний хулиган; Лиза - философский 8-летний ребенок; и Мэгги - младенец, который общается посредством соски.
Качество: WEB-DLRip
Формат: AVI
Видео: MPEG4, XviD, 720x400 (16:9), 23.976 fps, ~1 556 Kbps (~0.225 bit/pixel)
Аудио: MP3, 48.0 KHz, 2 ch, 128 Kbps, CBR
Источник: здесь (видео не пережималось, вырезана реклама)
Скачать семпл: здесь
Альтернативные раздачи: здесь
Добавлена 12 серия.

ТХ/MediaInfo

GeneralComplete name : E:\The.Simpsons.S24\The.Simpsons.S24E01.WEB-DLRip.aviFormat : AVIFormat/Info : Audio Video InterleaveFile size : 292 MiBDuration : 20mn 28sOverall bit rate : 1 997 KbpsWriting application : VirtualDubMod 1.5.10.2 (build 2540/release)Writing library : VirtualDub build 35390/release
VideoID : 0Format : MPEG-4 VisualFormat profile : Advanced Simple@L5Format settings, BVOP : 2Format settings, QPel : NoFormat settings, GMC : No warppointsFormat settings, Matrix : Default (H.263)Codec ID : XVIDCodec ID/Hint : XviDDuration : 20mn 28sBit rate : 1 860 KbpsWidth : 720 pixelsHeight : 400 pixelsDisplay aspect ratio : 16:9Frame rate : 23.976 fpsColor space : YUVChroma subsampling : 4:2:0Bit depth : 8 bitsScan type : ProgressiveCompression mode : LossyBits/(Pixel*Frame) : 0.269Stream size : 272 MiB (93%)Writing library : XviD 1.2.1 (UTC 2008-12-04)
AudioID : 1Format : MPEG AudioFormat version : Version 1Format profile : Layer 3Mode : Joint stereoMode extension : MS StereoCodec ID : 55Codec ID/Hint : MP3Duration : 20mn 28sBit rate mode : ConstantBit rate : 128 KbpsChannel(s) : 2 channelsSampling rate : 48.0 KHzCompression mode : LossyStream size : 18.7 MiB (6%)Alignment : Aligned on interleavesInterleave, duration : 42 ms (1.00 video frame)Interleave, preload duration : 504 ms

Внимание! Раздача ведётся путём добавления новых серий!

При каждом добавлении создётся новый торрент. Чтобы начать докачку новой серии, пользователям необходимо сделать следующее:
(1) остановить скачивание,
(2) удалить старый торрент у себя из клиента (старые серии удалять не надо),
(3) скачать новый торрент и запустить его у себя в клиенте вместо старого, при этом указать клиенту путь в старую папку куда и должно происходить скачивание новых серий.
Ваш клиент при этом должен произвести хеширование (проверку) старой папки (если не производит сам - помогите ему сделать это), и будет докачивать только те серии которых у вас ещё нет. Старые серии при этом не удаляются, а продолжают раздаваться!
Eсли вы уже удалили старые серии, то предотвратить повторную закачку старых серий можно, отжав галочку в соответсвующих местах при запуске нового торрента. По возможности, желательно не удалять старые серии как можно дольше чтобы релизёр не столько продолжал раздавать старые серии, а смог сконцентрироваться на новых.

Скриншоты

Вне форума [Профиль] [ЛС]
Показать сообщения:    
Ответить на тему

Текущее время: Сегодня 03:24

Часовой пояс: GMT + 3



Вы не можете начинать темы
Вы не можете отвечать на сообщения
Вы не можете редактировать свои сообщения
Вы не можете удалять свои сообщения
Вы не можете голосовать в опросах
Вы не можете прикреплять файлы к сообщениям
Вы не можете скачивать файлы