Сегодня идет свободное скачивание без начисления Download

Небесный тихоход (Семен Тимошенко) [1945 г., комедия, военный, BDRip720p]

Ответить на тему
 
Автор
Сообщение

Delia ®

Пол:

Стаж: 8 лет 5 месяцев

Сообщений: 1822

Торрент-статистика

Пост 30-Май-2011 00:11

[Цитировать]

Небесный тихоход Год выпуска: 1945
Страна: СССР
Жанр: комедия, военный
Продолжительность: 01:23:22
Перевод: Не требуется
Режиссер: Семен Тимошенко
Сценарий: Семен Тимошенко
Премьера в мире: 1 апреля 1946
В ролях: Николай Крючков, Василий Меркурьев, Василий Нещипленко, Алла Парфаньяк, Людмила Глазова, Тамара Алешина, Яков Гудкин, Фаина Раневская, Константин Скоробогатов, Семен Тимошенко
Описание: Три друга, летчики-офицеры, поклялись не любить до конца войны. Однако военная служба познакомила из с летчицами женской эскадрильи. И друзья один за другим начали сдавать свои позиции.После тяжелого ранения летчик Булочкин вынужден летать не на скоростном истребителе, а на «тихоходе» У-2. Привыкший к опасностям Булочкин с трудом привыкает к спокойной жизни в эскадрилье, где большинство летчиков — девушки. Но вскоре становится ясно, что на войне важны и «тихоходы».
Качество: BDRip720p
Формат: MKV
Видео кодек: H.264
Аудио кодек: AC3
Видео: English, 4099 Кбит/сек, 950*720 (4:3), в 23,976 кадр/сек, AVC (High@L4.1)
Аудио: Russian, 640 Кбит/сек, 48,0 КГц, 16 бит, 6 канала(ов), AC-3

MI:

Общее
Уникальный идентификатор : 235585993295488492653294986111971206480 (0xB13C363EDB03A46D8931532EA74BA550)
Полное имя : D:\торрент\Nebesnyj_tihohod(1945)_BDRip720р.mkv
Формат : Matroska
Размер файла : 2,76 Гбайт
Продолжительность : 1 ч. 23 м.
Общий поток : 4741 Кбит/сек
Дата кодирования : UTC 2011-05-29 20:28:53
Программа кодирования : mkvmerge v4.8.0 ('I Got The...') built on May 24 2011 03:12:58
Библиотека кодирования : libebml v1.2.0 + libmatroska v1.1.0
Видео
Идентификатор : 1
Формат : AVC
Формат/Информация : Advanced Video Codec
Профиль формата : High@L4.1
Параметр CABAC формата : Да
Параметр ReFrames формата : 10 кадры
Идентификатор кодека : V_MPEG4/ISO/AVC
Продолжительность : 1 ч. 23 м.
Битрейт : 4099 Кбит/сек
Ширина : 950 пикс.
Высота : 720 пикс.
Соотношение сторон : 4:3
Частота кадров : 23,976 кадр/сек
Цветовое пространство : YUV
Подвыборка цветности : 4:2:0
Битовая глубина : 8 бит
Тип развёртки : Прогрессивная
Бит/(Пиксели*Кадры) : 0.250
Размер потока : 2,33 Гбайт (85%)
Библиотека кодирования : x264 core 115 r1995 c1e60b9
Настройки программы : cabac=1 / ref=10 / deblock=1:-3:-3 / analyse=0x3:0x133 / me=umh / subme=8 / psy=1 / psy_rd=1.00:0.15 / mixed_ref=1 / me_range=32 / chroma_me=1 / trellis=2 / 8x8dct=1 / cqm=0 / deadzone=21,11 / fast_pskip=1 / chroma_qp_offset=-3 / threads=6 / sliced_threads=0 / nr=0 / decimate=1 / interlaced=0 / bluray_compat=0 / constrained_intra=0 / bframes=5 / b_pyramid=2 / b_adapt=2 / b_bias=0 / direct=1 / weightb=1 / open_gop=0 / weightp=2 / keyint=250 / keyint_min=24 / scenecut=40 / intra_refresh=0 / rc_lookahead=60 / rc=2pass / mbtree=1 / bitrate=4099 / ratetol=1.0 / qcomp=0.70 / qpmin=0 / qpmax=69 / qpstep=4 / cplxblur=20.0 / qblur=0.5 / ip_ratio=1.40 / aq=1:1.00
Язык : English
Аудио
Идентификатор : 2
Формат : AC-3
Формат/Информация : Audio Coding 3
Расширение режима : CM (complete main)
Идентификатор кодека : A_AC3
Продолжительность : 1 ч. 23 м.
Вид битрейта : Постоянный
Битрейт : 640 Кбит/сек
Канал(ы) : 6 канала(ов)
Расположение каналов : Front: L C R, Side: L R, LFE
Частота : 48,0 КГц
Битовая глубина : 16 бит
Метод сжатия : С потерями
Размер потока : 382 Мбайт (14%)
Язык : Russian
Меню
00:00:00.000 : en:00:00:00.000
00:09:03.543 : en:00:09:03.543
00:14:00.840 : en:00:14:00.840
00:19:44.517 : en:00:19:44.517
00:23:04.633 : en:00:23:04.633
00:26:49.149 : en:00:26:49.149
00:32:20.981 : en:00:32:20.981
00:39:09.639 : en:00:39:09.639
00:44:27.582 : en:00:44:27.582
00:50:47.378 : en:00:50:47.378
00:56:24.423 : en:00:56:24.423
01:01:25.098 : en:01:01:25.098
01:06:53.718 : en:01:06:53.718
01:16:07.021 : en:01:16:07.021
01:18:39.006 : en:01:18:39.006

Скриншоты

        

_________________
Человек – это канат, натянутый между животным и сверхчеловеком, – канат над пропастью.
В человеке ценно то, что он мост, а не цель. Фридрих Ницше


Последний раз редактировалось: Delia (2011-08-20 19:07), всего редактировалось 1 раз
Вне форума [Профиль] [ЛС]
Показать сообщения:    
Ответить на тему

Текущее время: Сегодня 05:18

Часовой пояс: GMT + 3



Вы не можете начинать темы
Вы не можете отвечать на сообщения
Вы не можете редактировать свои сообщения
Вы не можете удалять свои сообщения
Вы не можете голосовать в опросах
Вы не можете прикреплять файлы к сообщениям
Вы не можете скачивать файлы