Сегодня идет свободное скачивание без начисления Download

Чип и Дейл спешат на помощь / Chip and Dale Rescue Rangers / Сезон: 1,2 / Серии: 01-65 (Джон Кимболл, Роб Замбони / John Kimball, Bob Zamboni) [1989-1990, Анимация, DVDRemux, SATRip] AVO (Живов) + Dub (ТСК, Невафильм) + Eng

Ответить на тему
 
Автор
Сообщение

Omen ®

Стаж: 4 года 10 месяцев

Сообщений: 190643

Торрент-статистика

Пост 10-Фев-2013 23:20

[Цитировать]

Страна: США
Жанр: Анимация, приключения
Продолжительность: ~22мин.
Год выпуска: 1989-1990
Режиссёр: Джон Кимболл, Роб Замбони

Качество: DVD-Remux [1x01-28,30-44, 2x01,04-05] | SATRip (ОРТ) [1x29,45,49,51; 2x02-03,06-12] | SATRip (СТС) [2x13]
Формат: MKV [1x01-44,46-48; 2x01,04-05,09,13] | AVI [1x45,49,51; 2x03,06-08,10-12]
Видео DVD-Remux: MPEG Video | 720x480 | NTSC | 29.970fps | ~4000kb/s | 0.379b/p
Видео SAT-Rip (ОРТ): XVID | 704x528 | PAL | 25fps | ~1992kb/s | 0.214b/p
Видео SAT-Rip (СТС): XVID | 704x528 | PAL | 25fps | ~1952kb/s | 0.210b/p
Русские субтитры: да [1x01-15,17-20; 2x01]
Английские субтитры: да [1x01-28,30-44,46-48,50,52; 2x01,04-05]
Украинские субтитры: да [1x02,13,17]-Описание:
«Чип и Дейл спешат на помощь» (англ. «Chip 'n Dale Rescue Rangers») — приключенческий мультсериал, созданный студией Уолта Диснея. Авторы идеи — Алан Заслов и Тэд Стоун. Главными героями мультсериала являются переработанные классические диснеевские персонажи — антропоморфные бурундуки Чип и Дейл, а также трое их друзей — мышка-изобретательница Гайка, крыса Рокфор и его друг, муха по имени Вжик — вместе образующие «Команду Спасателей» (англ. Rescue Rangers).
Впервые данная концепция была показана в США 27 августа 1988 года в превью-эпизоде «Catteries Not Included». Собственно сам мультсериал в США начал выходить в эфир с 4 марта 1989 года на канале «The Disney Channel» обычно в паре с «Утиными историями». Последняя серия была показана 19 ноября 1990 года. Начиная с 18 сентября 1990 года в США транслировался повтор шоу. Кроме того, повторы выходили до 3 сентября 1993 года в рамках программы «The Disney Afternoon».
В общей сложности было показано 65 серий, пять из которых представляют собой разделенный на несколько частей полнометражный мультфильм «Rescue Rangers: To The Rescue», которые выходили с порядковым номером серий с 14 по 18.
В январе 2009 ресурс IGN поставил мультсериал на 60-е место в списке «100 лучших анимационных телешоу».- Переводы и озвучки:
Аудиодорожка 01: AC3 | 48khz | 2ch | 256 kb/s | Авторский (одноголосный): | Живов Юрий | 1x02,06,08,12-13,29-31,33,37; 2x05,09,13
Аудиодорожка 02: AC3 | 48khz | 2ch | 192~384 kb/s | Профессиональный (дублированный): | ТСК (Телевизионная Студия Кинопрограмм) (1991) | 1x01-52
Аудиодорожка 03: AC3 | 48khz | 2ch | 192~384kb/s | Профессиональный (дублированный): | Невафильм (2004) | 2x01-13
Аудиодорожка 04: AC3 | 48khz | 2ch | 192 kb/s | Оригинал: | English | 1x01-28,30-44,46-48,50,52; 2x01,04-05
-

Подробные технические данные и Скриншоты

DVD-Remux

MI

Общее
Уникальный идентификатор : 172730557766268144449080861509764582961 (0x81F2B2028A8FD0BF82A5D67729E90E31)
Полное имя : ...\Чип и Дэйл\Chip & Dale\Season 1\1x30 A Creep In The Deep [ЖИВОВ]+[ТСК]+[ENG].mkv
Формат : Matroska
Размер файла : 923 Мбайт
Продолжительность : 22 м.
Общий поток : 5656 Кбит/сек
Дата кодирования : UTC 2010-02-22 21:41:31
Программа кодирования : mkvmerge v5.9.0 ('On The Loose') built on Dec 9 2012 15:37:01
Библиотека кодирования : libebml v1.3.0 + libmatroska v1.4.0
Видео
Идентификатор : 1
Формат : MPEG Video
Версия формата : Version 2
Профиль формата : Main@Main
Параметр BVOP формата : Нет
Параметр матрицы формата : По умолчанию
Идентификатор кодека : V_MPEG2
Идентификатор кодека/Информация: MPEG 1 or 2 Video
Продолжительность : 22 м.
Вид битрейта : Переменный
Битрейт : 4904 Кбит/сек
Номинальный битрейт : 9800 Кбит/сек
Ширина : 720 пикс.
Высота : 480 пикс.
Соотношение сторон : 4:3
Частота кадров : 29,970 кадр/сек
Стандарт вещания : Component
Цветовое пространство : YUV
Подвыборка цветности : 4:2:0
Битовая глубина : 8 бит
Тип развёртки : Чересстрочная
Порядок развёртки : Верхнее поле первое
Метод сжатия : С потерями
Бит/(Пиксели*Кадры) : 0.473
Размер потока : 800 Мбайт (87%)
Язык : English
Аудио #1
Идентификатор : 2
Формат : AC-3
Формат/Информация : Audio Coding 3
Расширение режима : CM (complete main)
Идентификатор кодека : A_AC3
Продолжительность : 22 м.
Вид битрейта : Постоянный
Битрейт : 256 Кбит/сек
Каналы : 2 канала
Расположение каналов : Front: L R
Частота : 48,0 КГц
Битовая глубина : 16 бит
Метод сжатия : С потерями
Размер потока : 41,8 Мбайт (5%)
Заголовок : Живов
Язык : Russian
Аудио #2
Идентификатор : 3
Формат : AC-3
Формат/Информация : Audio Coding 3
Расширение режима : CM (complete main)
Идентификатор кодека : A_AC3
Продолжительность : 22 м.
Вид битрейта : Постоянный
Битрейт : 192 Кбит/сек
Каналы : 2 канала
Расположение каналов : Front: L R
Частота : 48,0 КГц
Битовая глубина : 16 бит
Метод сжатия : С потерями
Задержка видео : 29 мс.
Размер потока : 31,3 Мбайт (3%)
Заголовок : ТСК
Язык : Russian
Аудио #3
Идентификатор : 4
Формат : AC-3
Формат/Информация : Audio Coding 3
Расширение режима : CM (complete main)
Идентификатор кодека : A_AC3
Продолжительность : 22 м.
Вид битрейта : Постоянный
Битрейт : 192 Кбит/сек
Каналы : 2 канала
Расположение каналов : Front: L R
Частота : 48,0 КГц
Битовая глубина : 16 бит
Метод сжатия : С потерями
Задержка видео : 29 мс.
Размер потока : 31,3 Мбайт (3%)
Заголовок : English
Язык : English
Текст
Идентификатор : 5
Формат : VobSub
Режим смешивания : zlib
Идентификатор кодека : S_VOBSUB
Идентификатор кодека/Информация: The same subtitle format used on DVDs
Язык : English

SAT-Rip (ОРТ)

MI

Общее
Полное имя : ...\Чип и Дэйл\Chip & Dale\Season 1\1x45 Good Times, Bat Times {ОРТ} [ТСК].avi
Формат : AVI
Формат/Информация : Audio Video Interleave
Размер файла : 373 Мбайт
Продолжительность : 21 м.
Общий поток : 2386 Кбит/сек
Программа кодирования : VirtualDubMod 1.5.10.2 (build 2540/release)
Библиотека кодирования : VirtualDubMod build 2540/release
Видео
Идентификатор : 0
Формат : MPEG-4 Visual
Профиль формата : Advanced Simple@L5
Параметр BVOP формата : 1
Параметр QPel формата : Нет
Параметр GMC формата : Без точки перехода
Параметр матрицы формата : Default (H.263)
Идентификатор кодека : XVID
Идентификатор кодека/Подсказка: XviD
Продолжительность : 21 м.
Битрейт : 1992 Кбит/сек
Ширина : 704 пикс.
Высота : 528 пикс.
Соотношение сторон : 4:3
Частота кадров : 25,000 кадр/сек
Цветовое пространство : YUV
Подвыборка цветности : 4:2:0
Битовая глубина : 8 бит
Тип развёртки : Прогрессивная
Метод сжатия : С потерями
Бит/(Пиксели*Кадры) : 0.214
Размер потока : 311 Мбайт (83%)
Библиотека кодирования : XviD 1.2.1 (UTC 2008-12-04)
Аудио
Идентификатор : 1
Формат : MPEG Audio
Версия формата : Version 1
Профиль формата : Layer 2
Идентификатор кодека : 50
Продолжительность : 21 м.
Вид битрейта : Постоянный
Битрейт : 384 Кбит/сек
Каналы : 2 канала
Частота : 48,0 КГц
Метод сжатия : С потерями
Размер потока : 60,0 Мбайт (16%)
Выравнивание : Соединение по промежуткам
Продолжительность промежутка : 40 мс. (1,00 видеокадр)
Время предзагрузки промежутка : 504 ms

SAT-Rip (СТС)

MI

Общее
Уникальный идентификатор : 193805482200807778152779025426855072736 (0x91CD940202F7147C8F2092BBCB5193E0)
Полное имя : ...\Чип и Дэйл\Chip & Dale\Season 2\2x13 Gorilla My Dreams {СТС} [ЖИВОВ]+[НЕВАФИЛЬМ].mkv
Формат : Matroska
Размер файла : 394 Мбайт
Продолжительность : 21 м.
Общий поток : 2514 Кбит/сек
Дата кодирования : UTC 2010-02-22 21:41:31
Программа кодирования : mkvmerge v5.9.0 ('On The Loose') built on Dec 9 2012 15:37:01
Библиотека кодирования : libebml v1.3.0 + libmatroska v1.4.0
Видео
Идентификатор : 1
Формат : MPEG-4 Visual
Профиль формата : Advanced Simple@L5
Параметр BVOP формата : Да
Параметр QPel формата : Нет
Параметр GMC формата : Без точки перехода
Параметр матрицы формата : Default (H.263)
Идентификатор кодека : XVID
Идентификатор кодека/Подсказка: XviD
Продолжительность : 21 м.
Битрейт : 1952 Кбит/сек
Ширина : 704 пикс.
Высота : 528 пикс.
Соотношение сторон : 4:3
Частота кадров : 25,000 кадр/сек
Цветовое пространство : YUV
Подвыборка цветности : 4:2:0
Битовая глубина : 8 бит
Тип развёртки : Прогрессивная
Метод сжатия : С потерями
Бит/(Пиксели*Кадры) : 0.210
Размер потока : 306 Мбайт (78%)
Библиотека кодирования : XviD 1.2.1 (UTC 2008-12-04)
Аудио #1
Идентификатор : 2
Формат : AC-3
Формат/Информация : Audio Coding 3
Расширение режима : CM (complete main)
Идентификатор кодека : A_AC3
Продолжительность : 21 м.
Вид битрейта : Постоянный
Битрейт : 256 Кбит/сек
Каналы : 2 канала
Расположение каналов : Front: L R
Частота : 48,0 КГц
Битовая глубина : 16 бит
Метод сжатия : С потерями
Размер потока : 40,1 Мбайт (10%)
Заголовок : Живов
Язык : Russian
Аудио #2
Идентификатор : 3
Формат : MPEG Audio
Версия формата : Version 1
Профиль формата : Layer 2
Режим : Dual mono
Идентификатор кодека : A_MPEG/L2
Идентификатор кодека/Подсказка: MP2
Продолжительность : 21 м.
Вид битрейта : Постоянный
Битрейт : 256 Кбит/сек
Каналы : 2 канала
Частота : 48,0 КГц
Метод сжатия : С потерями
Размер потока : 40,1 Мбайт (10%)
Заголовок : НЕВАФИЛЬМ
Язык : Russian

Скриншоты

Список серий

Расшифровка тегов в названиях файлов

1x01 - Номер сезона X Номер серии
ТСК - дублированный перевод Телевизионной Студии Кинопрограмм (1991 год)
НЕВАФИЛЬМ - дублированный перевод студии "Невафильм" (2004)
[ЖИВОВ] - авторский перевод Юрия Живова
[ENG] - оригинальная (английская) звуковая дорожка
{ОРТ} - исходники серий с телеканала ОРТ в формате SAT-Rip
{СТС} - исходники серий с телеканала СТС в формате SAT-Rip
1x01 Catteries Not Included [ТСК]+[ENG].mkv
1x02 Three Men & A Booby [ЖИВОВ]+[ТСК]+[ENG].mkv
1x03 The Carpetsnaggers [ТСК]+[ENG].mkv
1x04 Piratsy Under The Seas [ТСК]+[ENG].mkv
1x05 Adventures In Squirrelsitting [ТСК]+[ENG].mkv
1x06 Flash, The Wonder Dog [ЖИВОВ]+[ТСК]+[ENG].mkv
1x07 Pound Of The Baskervilles [ТСК]+[ENG].mkv
1x08 Parental Discretion Retired [ЖИВОВ]+[ТСК]+[ENG].mkv
1x09 Risky Beesiness [ТСК]+[ENG].mkv
1x10 Bearing Up Baby [ТСК]+[ENG].mkv
1x11 Out To Launch [ТСК]+[ENG].mkv
1x12 Dale Beside Himself [ЖИВОВ]+[ТСК]+[ENG].mkv
1x13 Kiwi's Big Adventure [ЖИВОВ]+[ТСК]+[ENG].mkv
1x14 A Lad In A Lamp [ТСК]+[ENG].mkv
1x15 Battle Of The Bulge [ТСК]+[ENG].mkv
1x16 Normie's Science Project [ТСК]+[ENG].mkv
1x17 Ghost Of A Chance [ТСК]+[ENG].mkv
1x18 An Elephant Never Suspects [ТСК]+[ENG].mkv
1x19 The Luck Stops Here [ТСК]+[ENG].mkv
1x20 Fake Me To Your Leader [ТСК]+[ENG].mkv
1x21 Last Train To Cashville [ТСК]+[ENG].mkv
1x22 The Case Of The Cola Cult [ТСК]+[ENG].mkv
1x23 Throw Mummy From The Train [ТСК]+[ENG].mkv
1x24 A Wolf In Cheap Clothing [ТСК]+[ENG].mkv
1x25 Prehysterical Pet [ТСК]+[ENG].mkv
1x26 Robocat [ТСК]+[ENG].mkv
1x27 Does Pavlov Ring A Bell [ТСК]+[ENG].mkv
1x28 Seer No Evil [ТСК]+[ENG].mkv
1x29 The S.S. Drainpipe {ОРТ} [ЖИВОВ]+[ТСК].mkv
1x30 A Creep In The Deep [ЖИВОВ]+[ТСК]+[ENG].mkv
1x31 Chipwrecked Shipmunks [ЖИВОВ]+[ТСК]+[ENG].mkv
1x32 The Last Leprecaun [ТСК]+[ENG].mkv
1x33 Chocolate Chips [ЖИВОВ]+[ТСК]+[ENG].mkv
1x34 Song of the Night'n Dale [ТСК]+[ENG].mkv
1x35 Love is a Many Splintered Thing [ТСК]+[ENG].mkv
1x36 Weather or Not [ТСК]+[ENG].mkv
1x37 Out of Scale [ЖИВОВ]+[ТСК]+[ENG].mkv
1x38 Gadget Goes Hawaiian [ТСК]+[ENG].mkv
1x39 Double'0 Chipmunk [ТСК]+[ENG].mkv
1x40 To The Rescue, Part 1 [ТСК]+[ENG].mkv
1x41 To The Rescue, Part 2 [ТСК]+[ENG].mkv
1x42 To The Rescue, Part 3 [ТСК]+[ENG].mkv
1x43 To The Rescue, Part 4 [ТСК]+[ENG].mkv
1x44 To The Rescue, Part 5 [ТСК]+[ENG].mkv
1x45 Good Times, Bat Times {ОРТ} [ТСК].avi
1x46 Short Order Crooks [ТСК]+[ENG].mkv
1x47 When Mice Were Men [ТСК]+[ENG].mkv
1x48 It's a Bird, It's Insane, It's Dale! [ТСК]+[ENG].mkv
1x49 They Shoot Dogs, Don't They {ОРТ} [ТСК].avi
1x50 One-Upsman-Chip [ТСК]+[ENG].mkv
1x51 Zipper Come Home! {ОРТ} [ТСК].avi
1x52 Shellshocked [ТСК]+[ENG].mkv
2x01 A Case Of Stage Blight [НЕВАФИЛЬМ]+[ENG].mkv
2x02 Puffed Rangers {ОРТ} [НЕВАФИЛЬМ].avi
2x03 A Fly In The Ointment {ОРТ} [НЕВАФИЛЬМ].avi
2x04 Dirty Rotten Diapers [НЕВАФИЛЬМ]+[ENG].mkv
2x05 Mind Your Cheese & Q's [ЖИВОВ]+[НЕВАФИЛЬМ]+[ENG].mkv
2x06 Pie In The Sky {ОРТ} [НЕВАФИЛЬМ].avi
2x07 A Chorus Crime {ОРТ} [НЕВАФИЛЬМ].avi
2x08 Le Purrfect Crime {ОРТ} [НЕВАФИЛЬМ].avi
2x09 When You Fish Upon A Star {ОРТ} [ЖИВОВ]+[НЕВАФИЛЬМ].mkv
2x10 A Lean On The Property {ОРТ} [НЕВАФИЛЬМ].avi
2x11 Rest Home Rangers {ОРТ} [НЕВАФИЛЬМ].avi
2x12 The Pied Piper Power Play {ОРТ} [НЕВАФИЛЬМ].avi
2x13 Gorilla My Dreams {СТС} [ЖИВОВ]+[НЕВАФИЛЬМ].mkv
-Сей проект является продолжением коллекционных серий, задуманных мной давно в целях собирания любимых мной диснеевских мультсериалов в самом лучшем доступном качестве, которые можно достать на настоящий момент + собирание всех раритетных авторских переводов
Исходя из этого, по-мнению автора, сия раздача является наилучшей по качеству (либо идентичной) и наполнению (точно наилучшей ) среди всех альтернативных засчёт того, что здесь
:
за основу проекта были взяты оригинальные издания DVD в формате DVD9, которые были пересобраны в формате DVD-Remux БЕЗ какого-либо малейшего пережатия и как следствие ухудшения качества. Конкретно взято: видео, английская и русская аудиодорожки, русские, английские и украинские субтитры на 51 серию, выпущенных официально
использовано лучшее видео для серий, невыпущенных на DVD (спасибо mrogg & utas за качественный видеоряд SATRip'ов с телеканаловОРТ и СТС
собраны все дублированные переводы, которые мне удалось найти по возможности в лучшем качестве (ТСК, Невафильм)
собраны все авторские переводы с видеокассет (как из личных архивов многих людей, так и с общедоступных источников) (Живов)-

Спасибо поставщикам раритетных аудиодорожек, а также всем причастным к данному проекту так или иначе

Avengo
GVR232
mrogg
Multmir
utas
xfiles
и всем, чьи дорожки и раздачи были так или иначе использованы!
ВНИМАНИЕ!
Раздача может когда-нибудь обновится в связи с нахождением:
новых переводов
более высокого качества видео исходников (на замены сериям в рипах)
-
Рекомендую также ознакомиться с другими моими полными коллекциями мультсериалов
Вне форума [Профиль] [ЛС]
Показать сообщения:    
Ответить на тему

Текущее время: Сегодня 20:35

Часовой пояс: GMT + 3



Вы не можете начинать темы
Вы не можете отвечать на сообщения
Вы не можете редактировать свои сообщения
Вы не можете удалять свои сообщения
Вы не можете голосовать в опросах
Вы не можете прикреплять файлы к сообщениям
Вы не можете скачивать файлы