Сегодня идет свободное скачивание без начисления Download

Парки и зоны отдыха / Parks and Recreation (Дин Холлэнд) (2011,Комедия) WEB-DLRip [Сезон 4, 1-22 серии из 22] [To4kaTV]

Ответить на тему
 
Автор
Сообщение

Витек1 ®

Пол:

Стаж: 5 лет 8 месяцев

Сообщений: 454

Откуда: Житомир

Торрент-статистика

Пост 10-Фев-2013 16:16

[Цитировать]

Парки и зоны отдыха / Parks and Recreation - Русское название: Парки и зоны отдыха
Оригинальное название: Parks and Recreation
Страна: США
Год выпуска: 2011
Жанр: Комедия
Перевод: Двуголосый закадровый, профессиональный
Озвучка / Автор перевода: To4kaTV
Релиз группа: To4kaTV

Режиссер: Дин Холлэнд, Грег Дэниелс, Сет Гордон, Кен Уиттингэм, Таккер Гейтс, Николь Холофсенер, Венди Станцлер, Трой Миллер, Майкл Шур, Рэндолл Эйнхорн, Джейсон Уолинер, Тристрам Шапиро, Майкл Трим, Чарльз МакДугалл, Алекс Хардкэсл
Актеры: Эми Полер, Рашида Джонс, Азиз Ансари, Ник Офферман, Обри Плаза, Крис Прэтт, Джим О’Хейр, Ретта, Адам Скотт, Роб Лоу, Пол Шнайдер, Джей Джексон, Энди Форрест, Бен Шварц, Эндрю Берлинсон, Памела Рид, Мо Коллинз, Фил Ривз, Марк Риверз, Луис С.К., Элисон Бекер, Кирк Фокс, Джонни Снид, Блейк Ли, Купер Торнтон, Меган Маллалли, Натали Моралес, Кэтрин Хан, Джастин Теру, Энди Милдер, Пол Радд
Описание фильма:
Простой чиновник Лесли Ноп однажды поняла, что своей работой не приносит обществу никакой пользы. Тогда же она решает превратить заброшенный карьер практически в парк культуры и отдыха. Препятствием на её пути, конечно же, станут негибкая бюрократическая система, эгоистичные соседи, не желающие перемен даже к лучшему, и фирмы-застройщики, сразу заинтересовавшиеся не ненужным им до этого бесхозным участком. Но Лесли им не уступит…
Продолжительность: 22 х ~ 00:21:00
Качество видео: WEB-DLRip
Сэмпл: Скачать
Видеокодек: Xvid
Битрейт видео: ~1361 Кбит/с
Размер кадра: 720x400
Аудиокодек: MP3
Аудио 1 (Rus): MP3, 128 Kbps, 2 ch
Аудио 2 (Eng): MP3, 128 Kbps, 2 ch

MI

Complete name : Parks.and.Recreation.S04E01.WEB-DLRip.avi
Format : AVI
Format/Info : Audio Video Interleave
File size : 250 MiB
Duration : 21mn 27s
Overall bit rate : 1 629 Kbps
Writing application : VirtualDubMod 1.5.10.2 (build 2540/release)
Writing library : VirtualDubMod build 2540/release
Video
ID : 0
Format : MPEG-4 Visual
Format profile : Advanced Simple@L5
Format settings, BVOP : 2
Format settings, QPel : No
Format settings, GMC : No warppoints
Format settings, Matrix : Default (H.263)
Muxing mode : Packed bitstream
Codec ID : XVID
Codec ID/Hint : XviD
Duration : 21mn 27s
Bit rate : 1 359 Kbps
Width : 720 pixels
Height : 400 pixels
Display aspect ratio : 16:9
Frame rate : 23.976 fps
Color space : YUV
Chroma subsampling : 4:2:0
Bit depth : 8 bits
Scan type : Progressive
Compression mode : Lossy
Bits/(Pixel*Frame) : 0.197
Stream size : 209 MiB (83%)
Writing library : XviD 1.2.1 (UTC 2008-12-04)
Audio #1
ID : 1
Format : MPEG Audio
Format version : Version 1
Format profile : Layer 3
Mode : Joint stereo
Mode extension : MS Stereo
Codec ID : 55
Codec ID/Hint : MP3
Duration : 21mn 27s
Bit rate mode : Constant
Bit rate : 128 Kbps
Channel(s) : 2 channels
Sampling rate : 48.0 KHz
Compression mode : Lossy
Delay relative to video : 24ms
Stream size : 19.6 MiB (8%)
Alignment : Aligned on interleaves
Interleave, duration : 42 ms (1.00 video frame)
Interleave, preload duration : 504 ms
Writing library : LAME3.92
Audio #2
ID : 2
Format : MPEG Audio
Format version : Version 1
Format profile : Layer 3
Mode : Joint stereo
Mode extension : MS Stereo
Codec ID : 55
Codec ID/Hint : MP3
Duration : 21mn 27s
Bit rate mode : Constant
Bit rate : 128 Kbps
Channel(s) : 2 channels
Sampling rate : 48.0 KHz
Compression mode : Lossy
Stream size : 19.6 MiB (8%)
Alignment : Aligned on interleaves
Interleave, duration : 42 ms (1.00 video frame)
Interleave, preload duration : 504 ms
Writing library : LAME3.98r
Encoding settings : -m j -V 4 -q 2 -lowpass 17 -b 128

Скриншоты

       
       

_________________
Скачал сам, дай скачать другому!!!Не забудь сказать -
Вне форума [Профиль] [ЛС]
Показать сообщения:    
Ответить на тему

Текущее время: Сегодня 10:26

Часовой пояс: GMT + 3



Вы не можете начинать темы
Вы не можете отвечать на сообщения
Вы не можете редактировать свои сообщения
Вы не можете удалять свои сообщения
Вы не можете голосовать в опросах
Вы не можете прикреплять файлы к сообщениям
Вы не можете скачивать файлы