Сегодня идет свободное скачивание без начисления Download

Политиканы / Political Animals (Дэвид Петрарка) (2012, Драма) WEB-DLRip [Season 1, 1-6 из 6] [To4kaTV]

Ответить на тему
 
Автор
Сообщение

Витек1 ®

Пол:

Стаж: 5 лет 7 месяцев

Сообщений: 454

Откуда: Житомир

Торрент-статистика

Пост 09-Фев-2013 22:55

[Цитировать]

Политиканы / Political Animals [Season 1, 1-6 из 6] [To4kaTV]- Русское название: Политиканы
Оригинальное название: Political Animals
Страна: США
Год выпуска: 2012
Жанр: Драма
Перевод: Многоголосый закадровый, любительский
Язык: To4kaTV
Озвучка / Автор перевода: To4kaTV
Релиз группа: To4kaTV

Режиссер: Дэвид Петрарка
Актеры: Сигурни Уивер, Карла Гуджино, Эллен Бёрстин, Кирен Хайдз, Себастиан Стэн, Джеймс Волк
Описание фильма:
Бывшая Первая леди США Эллейн Бэрриш теперь - Государственный Секретарь, сильная, властная, уверенная в себе. Но прошлое не оставляет её в покое, она вынуждена давать интервью журналистке из Вашингтона, когда-то приложившей все усилия, чтобы грязное бельё семьи Эллейн стало достоянием общественности. А тут ещё и непростая политическая ситуация в стране, да и взрослые дети, бывший муж и эксцентричная мама не дают расслабиться ни на минуту..
Продолжительность: 6 x ~ 00:44:00
Качество видео: WEB-DLRip
Сэмпл: Скачать
Видеокодек: Xvid
Битрейт видео: ~1200 kbps
Размер кадра: 720x400
Аудиокодек: MP3
Аудио 1 (Rus): MP3, 128 Kbps, 2 ch
Аудио 2 (Eng): MP3, 128 Kbps, 2 ch

MI

Complete name : Political.Animals.s01e01.WEB-DLRip.Rus.Eng.avi
Format : AVI
Format/Info : Audio Video Interleave
File size : 799 MiB
Duration : 1h 12mn
Overall bit rate : 1 536 Kbps
Writing application : VirtualDubModRus 1.5.10.2 (build 2542/release)
Writing library : VirtualDubMod build 2542/release
Video
ID : 0
Format : MPEG-4 Visual
Format profile : Advanced Simple@L5
Format settings, BVOP : 1
Format settings, QPel : No
Format settings, GMC : No warppoints
Format settings, Matrix : Custom
Codec ID : XVID
Codec ID/Hint : XviD
Duration : 1h 12mn
Bit rate : 1 266 Kbps
Width : 720 pixels
Height : 400 pixels
Display aspect ratio : 16:9
Frame rate : 23.976 fps
Color space : YUV
Chroma subsampling : 4:2:0
Bit depth : 8 bits
Scan type : Progressive
Compression mode : Lossy
Bits/(Pixel*Frame) : 0.183
Stream size : 659 MiB (82%)
Writing library : XviD 65
Audio #1
ID : 1
Format : MPEG Audio
Format version : Version 1
Format profile : Layer 3
Mode : Joint stereo
Mode extension : MS Stereo
Codec ID : 55
Codec ID/Hint : MP3
Duration : 1h 12mn
Bit rate mode : Constant
Bit rate : 128 Kbps
Channel(s) : 2 channels
Sampling rate : 48.0 KHz
Compression mode : Lossy
Stream size : 66.6 MiB (8%)
Alignment : Aligned on interleaves
Interleave, duration : 42 ms (1.00 video frame)
Interleave, preload duration : 504 ms
Audio #2
ID : 2
Format : MPEG Audio
Format version : Version 1
Format profile : Layer 3
Mode : Joint stereo
Mode extension : MS Stereo
Codec ID : 55
Codec ID/Hint : MP3
Duration : 1h 12mn
Bit rate mode : Constant
Bit rate : 128 Kbps
Channel(s) : 2 channels
Sampling rate : 48.0 KHz
Compression mode : Lossy
Stream size : 66.6 MiB (8%)
Alignment : Split accross interleaves
Interleave, duration : 42 ms (1.00 video frame)
Interleave, preload duration : 500 ms

Скриншоты

       
       

_________________
Скачал сам, дай скачать другому!!!Не забудь сказать -
Вне форума [Профиль] [ЛС]
Похожие темы
Форум Тема Автор Торрент Отв. Посл. сообщение
./templates/default/images/folder_dl.gif Философия, Религия, Эзотерика Аристотел/Аристотель - Атинската полития./Афинская полития. [1993, PDF, BGR] Omen
1 | 0

0 | 3604

2

2016-12-04 01:01
Omen Последнее
Показать сообщения:    
Ответить на тему

Текущее время: Сегодня 20:26

Часовой пояс: GMT + 3



Вы не можете начинать темы
Вы не можете отвечать на сообщения
Вы не можете редактировать свои сообщения
Вы не можете удалять свои сообщения
Вы не можете голосовать в опросах
Вы не можете прикреплять файлы к сообщениям
Вы не можете скачивать файлы