Сегодня идет свободное скачивание без начисления Download

За Гранью / Fringe (Сезон 5, полный) (Джо Чаппелль / Joe Chappelle ...) [2012г., Ужасы, фантастика, триллер, драма, детектив, WEB-DLRip] MVO (LostFilm) [обновляемая]

Ответить на тему
 
Автор
Сообщение

Omen ®

Стаж: 5 лет 9 месяцев

Сообщений: 184393

Торрент-статистика

Пост 22-Янв-2013 19:22

[Цитировать]

За Гранью
Fringe

«Imagine the Impossibilities»
- Русское название: За Гранью
Оригинальное название: Fringe
Страна: США, Bad Robot, Fringe Element Films, Warner Bros. Television
Год выпуска: 2012
Жанр: Ужасы, фантастика, триллер, драма, детектив-Озвучка: Студия LostFilm
Перевод: Многоголосый закадровый, профессиональный-Режиссер: Джо Чаппелль / Joe Chappelle, Дэвид Стрейтон / David Straiton, Том Яцко / Tom Yatsko ...
В главных ролях: Анна Торв, Джошуа Джексон, Джон Ноубл, Лэнс Реддик, Блэр Браун, Джесика Николь, Майкл Серверис, Кирк Асеведо, Сет Гейбл, Райан МакДональд ...
Роли дублировали: Елена Чебатуркина, Наталья Грачева, Сергей Набиев, Андрей Бархударов, Ольга Зверева ...-Описание фильма:
Пятый сезон начинается с событий, которыми закончилась серия Транзитные письма. Действие происходит в будущем, в 2036 году, когда власть на Земле захватили наблюдатели. Команда «За гранью» освобождена из янтаря, в котором герои провели 20 лет, и теперь возглавляет сопротивление. Питер наконец-то встречается со своей уже повзрослевшей дочерью Эттой, и они вместе начинают искать свою Оливию и спасать мир от наблюдателей.-Сезон: 5
Серии: 13 из 22 серий
Продолжительность: ~ 00:43:00 мин серия-Качество видео: WEB-DLRip
Формат: AVI
Видеокодек: XviD
Аудиокодек: Mp3
Видео: MPEG-4 Visual at 1867 Кбит/сек, 720 x 400 (1.800) at 23.976 fps
Аудио: MPEG Audio at 192 Кбит/сек, 2 канала, 48,0 КГц
- -

Список серий:

  • Мгновенный Объединитель Мыслей Модель-11 (Transilience Thought Unifier Model-11)
  • В отсутствие (In Absentia)
  • Писатель (The Recordist)
  • Пуля, которая спасла мир (The Bullet That Saved the World)
  • История возникновения (An Origin Story)
  • Уолтер в Зазеркалье (Through the Looking Glass and What Walter Found There)
  • Пять-двадцать-десять (Five-Twenty-Ten)
  • Человеческий род (The Human Kind)
  • Чёрная марка (Black Blotter)
  • Аномалия XB-6783746 (Anomaly XB-6783746)
  • Мальчик должен жить (The Boy Must Live)
  • Свобода (Liberty)
  • Враг судьбы (An Enemy of Fate)
-

MediaInfo:

Код:
Общее
Полное имя                               : D:\Торро\Сериалы\За Гранью (Fringe)\Fringe.s05.rus.LostFilm\Fringe.s05e01.rus.LostFilm.TV.avi
Формат                                   : AVI
Формат/Информация                        : Audio Video Interleave
Размер файла                             : 646 Мбайт
Продолжительность                        : 43 м.
Общий поток                              : 2072 Кбит/сек
Программа кодирования                    : Nandub v1.0rc2
Библиотека кодирования                   : Nandub build 1853/release
Видео
Идентификатор                            : 0
Формат                                   : MPEG-4 Visual
Профиль формата                          : Simple@L3
Параметр BVOP формата                    : Нет
Параметр QPel формата                    : Нет
Параметр GMC формата                     : Без точки перехода
Параметр матрицы формата                 : Default (H.263)
Идентификатор кодека                     : XVID
Идентификатор кодека/Подсказка           : XviD
Продолжительность                        : 43 м.
Битрейт                                  : 1867 Кбит/сек
Ширина                                   : 720 пикселей
Высота                                   : 400 пикселей
Соотношение сторон                       : 16:9
Частота кадров                           : 23,976 кадра/сек
Цветовое пространство                    : YUV
Субдискретизация насыщенности            : 4:2:0
Битовая глубина                          : 8 бит
Тип развёртки                            : Прогрессивная
Метод сжатия                             : С потерями
Бит/(Пиксели*Кадры)                      : 0.270
Размер потока                            : 582 Мбайт (90%)
Библиотека кодирования                   : XviD 1.2.1 (UTC 2008-12-04)
Аудио
Идентификатор                            : 1
Формат                                   : MPEG Audio
Версия формата                           : Version 1
Профиль формата                          : Layer 3
Режим                                    : Joint stereo
Расширение режима                        : MS Stereo
Идентификатор кодека                     : 55
Идентификатор кодека/Подсказка           : MP3
Продолжительность                        : 43 м.
Вид битрейта                             : Постоянный
Битрейт                                  : 192 Кбит/сек
Каналы                                   : 2 канала
Частота                                  : 48,0 КГц
Метод сжатия                             : С потерями
Размер потока                            : 59,8 Мбайт (9%)
Выравнивание                             : Соединение по промежуткам
Продолжительность промежутка             : 24  мс. (0,58 видеокадр)
Время предзагрузки промежутка            : 480  мс.
Библиотека кодирования                   : LAME3.97 (beta)
-

Внимание! Раздача ведётся путём добавления новых серий!

Внимание! Раздача ведётся путём добавления новых серий; при каждом добавлении создётся новый торрент. Чтобы начать докачку новой серии, пользователям необходимо сделать следующее:
(1) остановить скачивание,
(2) удалить старый торрент у себя из клиента (старые серии удалять не надо),
(3) скачать новый торрент и запустить его у себя в клиенте вместо старого, при этом указать клиенту путь в старую папку куда и должно происходить скачивание новых серий.
Ваш клиент при этом должен произвести хеширование (проверку) старой папки (если не производит сам - помогите ему сделать это), и будет докачивать только те серии которых у вас ещё нет. Старые серии при этом не удаляются, а продолжают раздаваться!
Eсли вы уже удалили старые серии, то предотвратить повторную закачку старых серий можно, отжав галочку в соответсвующих местах при запуске нового торрента.
-Скриншоты:
     
-

Еще

           
-Полный сезон
Вне форума [Профиль] [ЛС]
Показать сообщения:    
Ответить на тему

Текущее время: Сегодня 23:32

Часовой пояс: GMT + 3



Вы не можете начинать темы
Вы не можете отвечать на сообщения
Вы не можете редактировать свои сообщения
Вы не можете удалять свои сообщения
Вы не можете голосовать в опросах
Вы не можете прикреплять файлы к сообщениям
Вы не можете скачивать файлы