Сегодня идет свободное скачивание без начисления Download

Гриффины / Family Guy / Сезон: 11 / Серии: 1-7 из ? (Сет Макфарлейн) [2012, Ситком, Чёрный юмор, Буффонада, Комедия, Пародия, WEB-DLRip] MVO - Filiza Studio

Ответить на тему
 
Автор
Сообщение

Omen ®

Стаж: 5 лет

Сообщений: 190529

Торрент-статистика

Пост 15-Янв-2013 16:52

[Цитировать]

Гриффины / Family Guy / 11 Сезон / WEB-DLRip-AVC
Страна: США
Жанр: Ситком, Чёрный юмор, Буффонада, Комедия, Пародия
Продолжительность: 00:22:00
Год выпуска: 2012
Перевод: Профессиональный (многоголосый закадровый) - Filiza Studio
Русские субтитры: нет
Режиссёр: Сет Макфарлейн
Роли озвучивали: Сет Макфарлейн, Алекс Борштейн, Сет Грин, Мила Кунис, Майк Генри
Описание: "Гриффины" (Family Guy) - анимационное ТВ-Шоу, созданное Сетом МакФерлайном (Seth MacFarlane) для телеканала FOX. Как нетрудно догадаться, главными героями шоу является семейка Гриффинов: тупой, но полный сумашедших идей, составляющих львиную долю шуток сериала, отец семейства Питер; его любящя и терпеливая жена Лойс, всеми силами пытающаяся превратить Гриффинов в нормальную семью; их интеллектуально развитый не по годам, вынашивающий идею мирового господства младший сын Стьюи; дочь-ботаник, обречённая из-за этого на одиночество и непонимание как в школе так и дома, Мэг; и 13-ти летний отсталый в развитии лет на 10, сын Крис. Также полноценным членом семьи является пёс Брайн - склонный к меланхолии эстет, спокойно наблюдающий с бокалом вина в лапе над приключениями Питера и остальных членов семьи (и это при всём притом, что остальные собаки в сериале не являются очеловеченными)
Семпл: http://narod.ru/disk/65433600001.e85df8e3ab5d87acef...%20Into%20Fat%20
Качество: WEB-DLRip-AVC
Формат: MKV
Видео: 720 X 400 / 23.976 fps / ~1250 kbp/s / 0.18 bit/px
Аудио: AC3 / 2.0 / 48KHz / ~192 kbp/s
Аудио 2: AC3 / 5.1 / 48KHz / ~384 kbp/s
Субтитры: отсутствуют

Подробные технические данные

General
Unique ID : 199848280033940770180621657282394447941 (0x965960F182D022FDB8A124A594B7E045)
Complete name : P:\Сериалы\Family Guy\Family Guy - Season 11 WEB-DLRip-AVC\1104 - Yug Ylimaf.mkv
Format : Matroska
Format version : Version 2
File size : 288 MiB
Duration : 21mn 36s
Overall bit rate : 1 863 Kbps
Movie name : Family Guy - 1104 - Yug Ylimaf / Релиз - D2T/"Криволапый ювелир"
Encoded date : UTC 2013-01-13 16:31:52
Writing application : mkvmerge v4.0.0 ('The Stars were mine') сборка от Jun 6 2010 16:18:42
Writing library : libebml v1.0.0 + libmatroska v1.0.0
Video
ID : 1
Format : AVC
Format/Info : Advanced Video Codec
Format profile : High@L3.0
Format settings, CABAC : Yes
Format settings, ReFrames : 4 frames
Codec ID : V_MPEG4/ISO/AVC
Duration : 21mn 36s
Bit rate : 1 250 Kbps
Width : 720 pixels
Height : 400 pixels
Display aspect ratio : 16:9
Frame rate : 23.976 fps
Color space : YUV
Chroma subsampling : 4:2:0
Bit depth : 8 bits
Scan type : Progressive
Bits/(Pixel*Frame) : 0.181
Stream size : 193 MiB (67%)
Writing library : x264 core 129 r2230 1cffe9f
Encoding settings : cabac=1 / ref=4 / deblock=1:0:0 / analyse=0x3:0x113 / me=tesa / subme=9 / psy=1 / psy_rd=1.00:0.00 / mixed_ref=1 / me_range=16 / chroma_me=1 / trellis=2 / 8x8dct=1 / cqm=0 / deadzone=21,11 / fast_pskip=1 / chroma_qp_offset=-2 / threads=6 / lookahead_threads=1 / sliced_threads=0 / nr=0 / decimate=1 / interlaced=0 / bluray_compat=0 / constrained_intra=0 / bframes=4 / b_pyramid=2 / b_adapt=2 / b_bias=0 / direct=3 / weightb=1 / open_gop=0 / weightp=2 / keyint=144 / keyint_min=14 / scenecut=33 / intra_refresh=0 / rc=cqp / mbtree=0 / qp=14 / ip_ratio=1.40 / pb_ratio=1.30 / aq=0
Language : English
Audio #1
ID : 2
Format : AC-3
Format/Info : Audio Coding 3
Mode extension : CM (complete main)
Codec ID : A_AC3
Duration : 21mn 36s
Bit rate mode : Constant
Bit rate : 192 Kbps
Channel(s) : 2 channels
Channel positions : Front: L R
Sampling rate : 48.0 KHz
Bit depth : 16 bits
Compression mode : Lossy
Stream size : 29.7 MiB (10%)
Title : Filiza Studio
Language : Russian
Audio #2
ID : 3
Format : AC-3
Format/Info : Audio Coding 3
Mode extension : CM (complete main)
Codec ID : A_AC3
Duration : 21mn 36s
Bit rate mode : Constant
Bit rate : 384 Kbps
Channel(s) : 6 channels
Channel positions : Front: L C R, Side: L R, LFE
Sampling rate : 48.0 KHz
Bit depth : 16 bits
Compression mode : Lossy
Delay relative to video : 20ms
Stream size : 59.3 MiB (21%)
Title : Original
Language : English

Скриншоты

Внимание! Раздача ведётся путём добавления новых серий

Внимание! Раздача ведётся путём добавления новых серий; при каждом добавлении создётся новый торрент. Чтобы начать докачку новой серии, пользователям необходимо сделать следующее:
(1) остановить скачивание,
(2) удалить старый торрент у себя из клиента (старые серии удалять не надо),
(3) скачать новый торрент и запустить его у себя в клиенте вместо старого, при этом указать клиенту путь в старую папку куда и должно происходить скачивание новых серий.
Ваш клиент при этом должен произвести хеширование (проверку) старой папки (если не производит сам - помогите ему сделать это), и будет докачивать только те серии которых у вас ещё нет. Старые серии при этом не удаляются, а продолжают раздаваться!
Eсли вы уже удалили старые серии, то предотвратить повторную закачку старых серий можно, отжав галочку в соответсвующих местах при запуске нового торрента. По возможности, желательно не удалять старые серии как можно дольше чтобы релизёр не столько продолжал раздавать старые серии, а смог сконцентрироваться на новых.

Релиз

"D2T/Криволапый ювелир"
Вне форума [Профиль] [ЛС]
Показать сообщения:    
Ответить на тему

Текущее время: Сегодня 12:14

Часовой пояс: GMT + 3



Вы не можете начинать темы
Вы не можете отвечать на сообщения
Вы не можете редактировать свои сообщения
Вы не можете удалять свои сообщения
Вы не можете голосовать в опросах
Вы не можете прикреплять файлы к сообщениям
Вы не можете скачивать файлы