Сегодня идет свободное скачивание без начисления Download

Симпсоны / The Simpsons / Сезон: 24 / Серии: 1-9 (22) (Мэтт Гроунинг / Matt Groening) [2012, Мультсериал, комедия, пародия, WEB-DLRip] MVO (Nice-Media)

Ответить на тему
 
Автор
Сообщение

Omen ®

Стаж: 5 лет

Сообщений: 190529

Торрент-статистика

Пост 13-Янв-2013 22:04

[Цитировать]

Симпсоны / The Simpsons
Страна: США
Жанр: Мультсериал, комедия, пародия
Продолжительность: ~ 20 минут. (серия)
Год выпуска: 2012
Перевод: Профессиональный (многоголосый закадровый) [Nice-Media]
Русские субтитры: нет
Режиссёр: Мэтт Гроунинг / Matt Groening
Роли озвучивали: Дэн Кастелланета, Джули Кавнер, Нэнси Картрайт, Ярдли Смит, Гарри Ширер, Хэнк Азария, Памела Хейден, Тресс МакНилл, Карл Видерготт, Мэгги Росвэлл и другие.
Описание: Симпсоны живут в вымышленном городе Спрингфилд, со своим обществом и историей. Гомер - отец семейства, который дает плохие советы и работает инспектором безопасности на атомной электростанции; Мардж - любящая мать и жена, старается сохранить спокойствие в семье; Барт - 10 летний хулиган; Лиза - философский 8-летний ребенок; и Мэгги - младенец, который общается посредством соски.
Семпл: http://multi-up.com/777690
Качество: WEB-DLRip
Формат: AVI
Видео: XviD, 720x400, 23.98fps, 1778Kbps
Аудио 1: MP3; 48000Hz; 2ch; 128kbps [Russian]
Аудио 2: MP3; 48000Hz; 2ch; 128kbps [English]
Субтитры: отсутствуют

Список серий

24 сезон:
1. Moonshine River
2. Treehouse of Horror XXIII
3. Adventures in Baby-Getting
4. Gone Abie Gone
5. Penny-Wiseguys
6. A Tree Grows in Springfield
7. The Day the Earth Stood Cool
8. To Cur With Love
9. Homer Goes to Prep School

Подробные технические данные

GeneralFormat : AVIFormat/Info : Audio Video InterleaveFile size : 319 MiBDuration : 21mn 47sOverall bit rate : 2 048 KbpsWriting application : VirtualDubMod 1.5.10.2 (build 2540/release)Writing library : VirtualDubMod build 2540/release
VideoID : 0Format : MPEG-4 VisualFormat profile : Advanced Simple@L5Format settings, BVOP : 2Format settings, QPel : NoFormat settings, GMC : No warppointsFormat settings, Matrix : Default (H.263)Codec ID : XVIDCodec ID/Hint : XviDDuration : 21mn 47sBit rate : 1 778 KbpsWidth : 720 pixelsHeight : 400 pixelsDisplay aspect ratio : 16:9Frame rate : 23.976 fpsColor space : YUVChroma subsampling : 4:2:0Bit depth : 8 bitsScan type : ProgressiveCompression mode : LossyBits/(Pixel*Frame) : 0.258Stream size : 277 MiB (87%)Writing library : XviD 1.2.1 (UTC 2008-12-04)
Audio #1ID : 1Format : MPEG AudioFormat version : Version 1Format profile : Layer 3Mode : Joint stereoMode extension : MS StereoCodec ID : 55Codec ID/Hint : MP3Duration : 21mn 47sBit rate mode : ConstantBit rate : 128 KbpsChannel(s) : 2 channelsSampling rate : 48.0 KHzCompression mode : LossyStream size : 19.9 MiB (6%)Alignment : Aligned on interleavesInterleave, duration : 42 ms (1.00 video frame)Interleave, preload duration : 504 ms
Audio #2ID : 2Format : MPEG AudioFormat version : Version 1Format profile : Layer 3Mode : Joint stereoMode extension : MS StereoCodec ID : 55Codec ID/Hint : MP3Duration : 21mn 46sBit rate mode : ConstantBit rate : 128 KbpsChannel(s) : 2 channelsSampling rate : 48.0 KHzCompression mode : LossyStream size : 19.9 MiB (6%)Alignment : Split accross interleavesInterleave, duration : 42 ms (1.00 video frame)Interleave, preload duration : 500 ms

Внимание! Раздача ведётся путём добавления новых серий!

При каждом добавлении создётся новый торрент. Чтобы начать докачку новой серии, пользователям необходимо сделать следующее:
(1) остановить скачивание,
(2) удалить старый торрент у себя из клиента (старые серии удалять не надо),
(3) скачать новый торрент и запустить его у себя в клиенте вместо старого, при этом указать клиенту путь в старую папку куда и должно происходить скачивание новых серий.
Ваш клиент при этом должен произвести хеширование (проверку) старой папки (если не производит сам - помогите ему сделать это), и будет докачивать только те серии которых у вас ещё нет. Старые серии при этом не удаляются, а продолжают раздаваться!
Eсли вы уже удалили старые серии, то предотвратить повторную закачку старых серий можно, отжав галочку в соответсвующих местах при запуске нового торрента. По возможности, желательно не удалять старые серии как можно дольше чтобы релизёр не столько продолжал раздавать старые серии, а смог сконцентрироваться на новых.

Скриншоты

-
Вне форума [Профиль] [ЛС]
Показать сообщения:    
Ответить на тему

Текущее время: Сегодня 01:12

Часовой пояс: GMT + 3



Вы не можете начинать темы
Вы не можете отвечать на сообщения
Вы не можете редактировать свои сообщения
Вы не можете удалять свои сообщения
Вы не можете голосовать в опросах
Вы не можете прикреплять файлы к сообщениям
Вы не можете скачивать файлы